×

¿Problemas para descargar con Mozilla, EDGE? Deshabilita la opción "Abrir vinculos en una pestaña nueva" tal como lo muestra ésta imagen.

Simbad y el ojo del tigre (1977) REMUX 1080p Latino

1.000 vistas

Información de Simbad y el ojo del tigre (1977) REMUX 1080p Latino

Datos de la película

  • Calidad: Full 1080p
  • Audio: Se especifica abajo de la Sinopsis
  • Subtitulos: Español Latino SRT- FORZADOS SRT
  • Resolución: 1920x1080p
  • Formato: MKV
  • Codec: H.264
  • Encoder: CinemaniaHD
  • Mediainfo: Clic para Mostrar Datos Ver
  • Simbad y el ojo del tigre (1977) REMUX 1080p Latino-CMHDD.mkv
    Format                      : Matroska
    Format version              : Version 4
    File size                   : 18.3 GiB
    Duration                    : 1 h 52 min
    Overall bit rate mode       : Variable
    Overall bit rate            : 23.2 Mb/s
    Movie name                  : Sinbad and the Eye of the Tiger (1977) CinemaniaHDD.Net
    Encoded date                : UTC 2023-09-28 09:06:02
    Writing application         : mkvmerge v56.1.0 ('My Friend') 64-bit
    Writing library             : libebml v1.4.2 + libmatroska v1.6.4

    Video
    ID                          : 1
    Format                      : AVC
    Format/Info                 : Advanced Video Codec
    Format profile              : High@L4.1
    Format settings             : CABAC / 4 Ref Frames
    Format settings, CABAC      : Yes
    Format settings, Reference  : 4 frames
    Codec ID                    : V_MPEG4/ISO/AVC
    Duration                    : 1 h 52 min
    Bit rate mode               : Variable
    Bit rate                    : 22.0 Mb/s
    Maximum bit rate            : 35.0 Mb/s
    Width                       : 1 920 pixels
    Height                      : 1 080 pixels
    Display aspect ratio        : 16:9
    Frame rate mode             : Constant
    Frame rate                  : 23.976 (24000/1001) FPS
    Standard                    : NTSC
    Color space                 : YUV
    Chroma subsampling          : 4:2:0
    Bit depth                   : 8 bits
    Scan type                   : Progressive
    Bits/(Pixel*Frame)          : 0.442
    Stream size                 : 17.4 GiB (95%)
    Title                       : REMUX HD1080p [CinemaniaHDD]
    Language                    : English
    Default                     : Yes
    Forced                      : Yes
    Color range                 : Limited
    Color primaries             : BT.709
    Transfer characteristics    : BT.709
    Matrix coefficients         : BT.709

    Audio #1
    ID                          : 2
    Format                      : AC-3
    Format/Info                 : Audio Coding 3
    Commercial name             : Dolby Digital
    Codec ID                    : A_AC3
    Duration                    : 1 h 52 min
    Bit rate mode               : Constant
    Bit rate                    : 256 kb/s
    Channel(s)                  : 2 channels
    Channel layout              : L R
    Sampling rate               : 48.0 kHz
    Frame rate                  : 31.250 FPS (1536 SPF)
    Compression mode            : Lossy
    Stream size                 : 207 MiB (1%)
    Title                       : Español Latino [CinemaniaHDD]
    Language                    : Spanish
    Service kind                : Complete Main
    Default                     : Yes
    Forced                      : Yes

    Audio #2
    ID                          : 3
    Format                      : DTS XLL
    Format/Info                 : Digital Theater Systems
    Commercial name             : DTS-HD Master Audio
    Codec ID                    : A_DTS
    Duration                    : 1 h 52 min
    Bit rate mode               : Variable
    Bit rate                    : 980 kb/s
    Channel(s)                  : 2 channels
    Channel layout              : L R
    Sampling rate               : 48.0 kHz
    Frame rate                  : 93.750 FPS (512 SPF)
    Bit depth                   : 16 bits
    Compression mode            : Lossless
    Stream size                 : 792 MiB (4%)
    Title                       : Ingles [CinemaniaHDD]
    Language                    : English
    Default                     : No
    Forced                      : No

    Text #1
    ID                          : 4
    Format                      : UTF-8
    Codec ID                    : S_TEXT/UTF8
    Codec ID/Info               : UTF-8 Plain Text
    Duration                    : 6 s 232 ms
    Bit rate                    : 32 b/s
    Count of elements           : 1
    Stream size                 : 25.0 Bytes (0%)
    Title                       : Forzados-SRT [CinemaniaHDD]
    Language                    : Spanish
    Default                     : Yes
    Forced                      : Yes

    Text #2
    ID                          : 5
    Format                      : UTF-8
    Codec ID                    : S_TEXT/UTF8
    Codec ID/Info               : UTF-8 Plain Text
    Duration                    : 1 h 51 min
    Bit rate                    : 38 b/s
    Count of elements           : 850
    Stream size                 : 31.3 KiB (0%)
    Title                       : Español-SRT [CinemaniaHDD]
    Language                    : Spanish
    Default                     : No
    Forced                      : No

    Text #3
    ID                          : 6
    Format                      : PGS
    Muxing mode                 : zlib
    Codec ID                    : S_HDMV/PGS
    Codec ID/Info               : Picture based subtitle format used on BDs/HD-DVDs
    Duration                    : 1 h 51 min
    Bit rate                    : 17.2 kb/s
    Count of elements           : 1657
    Stream size                 : 13.7 MiB (0%)
    Title                       : Ingles [CinemaniaHDD]
    Language                    : English
    Default                     : No
    Forced                      : No

  • Peso: 18.3 GiB

Sinopsis

Descargar Simbad y el ojo del tigre (1977) REMUX 1080p Latino. Cuando Simbad, intrépido marino y Príncipe de Bagdad, pone rumbo a Charnak para pedir al Príncipe Kassim la mano de su hermana Farah, descubre que Kassim es víctima de un hechizo de Zenobia, su diabólica madrastra. Para conjurar el maleficio, tendrá que emprender un peligroso viaje que nadie ha realizado nunca y que lo llevará a enfrentarse con monstruosas criaturas como el Minoton, un coloso de bronce, el troglodita gigante, el tigre con dientes de sable y un babuino casi humano.

Español Latino AC3 2.0 – Ingles DTS-HD 2.0 Bluray
RESUBIDA!!!

Ficha técnica

Video trailer de la película

Enlaces de descarga

Rip de Bluray

Descargar Simbad y el ojo del tigre (1977) REMUX 1080p Latino


Aportes de DPeliculasHDmega la pass es:dpeliculashdmega.org Aportes de CinemaniaHD la pass es:cinemaniahdd.com Aportes recientes:cinemaniahdd.net

Películas relacionadas

descargar Simbad y el ojo del tigre (1977) REMUX 1080p Latino Full 1080p 1080p gratis, Simbad y el ojo del tigre (1977) REMUX 1080p Latino Full 1080p mega 1 link, Simbad y el ojo del tigre (1977) REMUX 1080p Latino Full 1080p pelicula completa, descargar Simbad y el ojo del tigre (1977) REMUX 1080p Latino Full 1080p gratis en mega.

Simbad y el ojo del tigre (1977) REMUX 1080p Latino pelicula full hd, Simbad y el ojo del tigre (1977) REMUX 1080p Latino mega latino, Simbad y el ojo del tigre (1977) REMUX 1080p Latino 4k latino, Simbad y el ojo del tigre (1977) REMUX 1080p Latino pelicula completa, Simbad y el ojo del tigre (1977) REMUX 1080p Latino descargar gratis, descargar Simbad y el ojo del tigre (1977) REMUX 1080p Latino pelicula latino, Simbad y el ojo del tigre (1977) REMUX 1080p Latino 1 link mega, Simbad y el ojo del tigre (1977) REMUX 1080p Latino 1 link google drive, Simbad y el ojo del tigre (1977) REMUX 1080p Latino hd 1080p latino.
Comentarios 0