×

¿Problemas para descargar con Mozilla, EDGE? Deshabilita la opción "Abrir vinculos en una pestaña nueva" tal como lo muestra ésta imagen.

James Bond: Sin Tiempo Para Morir (2021) AMZN Web-DL 1080p Latino

351 vistas

Información de James Bond: Sin Tiempo Para Morir (2021) AMZN Web-DL 1080p Latino

Datos de la película

  • Calidad: WEBDL
  • Audio: Español Latino AC3 2.0 WEB-DL - Ingles AC3 5.1 WEB-DL
  • Subtitulos: Español Latino SRT- FORZADOS SRT
  • Resolución: 1920x800p
  • Formato: MKV
  • Codec: H.264
  • Encoder: Melkor
  • Mediainfo: Clic para Mostrar Datos Ver
  • Sin Tiempo Para Morir (2021) AMZN WebDL 1080p Latino.mkv
    Format                      : Matroska
    Format version              : Version 4
    File size                   : 12.2 GiB
    Duration                    : 2 h 43 min
    Overall bit rate            : 10.7 Mb/s
    Movie name                  : No Time To Die (2021) CinemaniaHDD.Net
    Encoded date                : UTC 2021-11-09 17:13:14
    Writing application         : mkvmerge v56.1.0 ('My Friend') 64-bit
    Writing library             : libebml v1.4.2 + libmatroska v1.6.4
    Attachments                 : CINEMANIAHD.png

    Video
    ID                          : 1
    Format                      : AVC
    Format/Info                 : Advanced Video Codec
    Format profile              : High@L4
    Format settings             : CABAC / 4 Ref Frames
    Format settings, CABAC      : Yes
    Format settings, Reference  : 4 frames
    Codec ID                    : V_MPEG4/ISO/AVC
    Duration                    : 2 h 43 min
    Bit rate mode               : Constant
    Bit rate                    : 9 062 kb/s
    Nominal bit rate            : 10 000 kb/s
    Width                       : 1 920 pixels
    Height                      : 800 pixels
    Display aspect ratio        : 2.40:1
    Frame rate mode             : Constant
    Frame rate                  : 23.976 (24000/1001) FPS
    Color space                 : YUV
    Chroma subsampling          : 4:2:0
    Bit depth                   : 8 bits
    Scan type                   : Progressive
    Bits/(Pixel*Frame)          : 0.246
    Stream size                 : 10.3 GiB (84%)
    Title                       : WEB HD1080p [CinemaniaHDD]
    Default                     : Yes
    Forced                      : Yes
    Color range                 : Limited
    Color primaries             : BT.709
    Transfer characteristics    : BT.709
    Matrix coefficients         : BT.709

    Audio #1
    ID                          : 2
    Format                      : AC-3
    Format/Info                 : Audio Coding 3
    Commercial name             : Dolby Digital
    Codec ID                    : A_AC3
    Duration                    : 2 h 43 min
    Bit rate mode               : Constant
    Bit rate                    : 256 kb/s
    Channel(s)                  : 2 channels
    Channel layout              : L R
    Sampling rate               : 48.0 kHz
    Frame rate                  : 31.250 FPS (1536 SPF)
    Compression mode            : Lossy
    Stream size                 : 299 MiB (2%)
    Title                       : Español Latino [CinemaniaHDD]
    Language                    : Spanish
    Service kind                : Complete Main
    Default                     : Yes
    Forced                      : Yes

    Audio #2
    ID                          : 3
    Format                      : E-AC-3
    Format/Info                 : Enhanced AC-3
    Commercial name             : Dolby Digital Plus
    Codec ID                    : A_EAC3
    Duration                    : 2 h 43 min
    Bit rate mode               : Constant
    Bit rate                    : 640 kb/s
    Channel(s)                  : 6 channels
    Channel layout              : L R C LFE Ls Rs
    Sampling rate               : 48.0 kHz
    Frame rate                  : 31.250 FPS (1536 SPF)
    Compression mode            : Lossy
    Stream size                 : 748 MiB (6%)
    Title                       : Ingles-US [CinemaniaHDD]
    Language                    : English
    Service kind                : Complete Main
    Default                     : No
    Forced                      : No

    Audio #3
    ID                          : 4
    Format                      : E-AC-3 JOC
    Format/Info                 : Enhanced AC-3 with Joint Object Coding
    Commercial name             : Dolby Digital Plus with Dolby Atmos
    Codec ID                    : A_EAC3
    Duration                    : 2 h 43 min
    Bit rate mode               : Constant
    Bit rate                    : 768 kb/s
    Channel(s)                  : 6 channels
    Channel layout              : L R C LFE Ls Rs
    Sampling rate               : 48.0 kHz
    Frame rate                  : 31.250 FPS (1536 SPF)
    Compression mode            : Lossy
    Stream size                 : 898 MiB (7%)
    Title                       : Ingles-UK [CinemaniaHDD]
    Language                    : English
    Service kind                : Complete Main
    Default                     : No
    Forced                      : No
    Complexity index            : 16
    Number of dynamic objects   : 15
    Bed channel count           : 1 channel
    Bed channel configuration   : LFE

    Text #1
    ID                          : 5
    Format                      : UTF-8
    Codec ID                    : S_TEXT/UTF8
    Codec ID/Info               : UTF-8 Plain Text
    Duration                    : 2 h 19 min
    Bit rate                    : 0 b/s
    Count of elements           : 20
    Stream size                 : 439 Bytes (0%)
    Title                       : Forzados-SRT [CinemaniaHDD]
    Language                    : Spanish
    Default                     : Yes
    Forced                      : Yes

    Text #2
    ID                          : 6
    Format                      : UTF-8
    Codec ID                    : S_TEXT/UTF8
    Codec ID/Info               : UTF-8 Plain Text
    Duration                    : 2 h 42 min
    Bit rate                    : 39 b/s
    Count of elements           : 1693
    Stream size                 : 46.7 KiB (0%)
    Title                       : Español-SRT [CinemaniaHDD]
    Language                    : Spanish
    Default                     : No
    Forced                      : No

    Text #3
    ID                          : 7
    Format                      : UTF-8
    Codec ID                    : S_TEXT/UTF8
    Codec ID/Info               : UTF-8 Plain Text
    Duration                    : 2 h 35 min
    Bit rate                    : 42 b/s
    Count of elements           : 1671
    Stream size                 : 48.4 KiB (0%)
    Title                       : Ingles-SRT [CinemaniaHDD]
    Language                    : English
    Default                     : No
    Forced                      : No

    Menu
    00:00:00.000                : Chapter 1
    00:11:57.125                : Chapter 2
    00:27:09.750                : Chapter 3
    00:43:46.000                : Chapter 4
    00:56:58.099                : Chapter 5
    01:04:09.000                : Chapter 6
    01:13:06.500                : Chapter 7
    01:22:28.832                : Chapter 8
    01:33:49.332                : Chapter 9
    01:51:42.000                : Chapter 10
    02:06:54.000                : Chapter 11
    02:25:23.500                : Chapter 12
    02:35:07.000                : Chapter 13

  • Peso: 12.2 GiB

Sinopsis

Descargar James Bond: Sin Tiempo Para Morir (2021) AMZN Web-DL 1080p Latino. En SIN TIEMPO PARA MORIR, Bond se ha retirado del servicio como agente en activo y disfruta de una tranquila vida en Jamaica. Pero sus días de paz acaban cuando su viejo amigo Felix Leiter de la CIA aparece pidiéndole ayuda. La misión en cuestión, que consiste en rescatar a un científico secuestrado, resulta mucho más compleja de lo esperado y pone a Bond sobre la pista de un misterioso villano armado con peligrosa tecnología de vanguardia.

Ficha técnica

Video trailer de la película

Enlaces de descarga

Rip de Bluray

Descargar James Bond: Sin Tiempo Para Morir (2021) AMZN Web-DL 1080p Latino




Aportes de DPeliculasHDmega la pass es:dpeliculashdmega.org Aportes de CinemaniaHD la pass es:cinemaniahdd.com
Guardado en : Acción , Aventura , Suspenso

Películas relacionadas

  • La Guerra Del Futuro (2022) NF WEB-DL 1080p Latino

    La Guerra Del Futuro (2022) NF WEB-DL 1080p Latino

    2022
    La Guerra Del Futuro (2022) NF WEB-DL 1080p Latino

    1h 41m 2022

    Descargar La Guerra Del Futuro (2022) NF WEB-DL 1080p Latino. Tras la caída de un meteorito que alberga...

    Director: Ng Yuen-fai

    Género: Acción

    Actores: Tse Kwan-Ho

  • The Independent (2022) PCOK WEB-DL 1080p Latino

    The Independent (2022) PCOK WEB-DL 1080p Latino

    2022
    The Independent (2022) PCOK WEB-DL 1080p Latino

    1h 48m 2022

    Una joven periodista descubre una conspiración que involucra a un candidato presidencial de Estados...

    Director: Amy Rice

    Género: Suspenso

    Actores: Zane Pais

  • Super… ¿quién? (2021) HD 1080p Latino

    Super… ¿quién? (2021) HD 1080p Latino

    2022
    Super… ¿quién? (2021) HD 1080p Latino

    1h 22m 2022

    Descargar Super... ¿quién? (2021) HD 1080p Latino. Cedric (Philippe Lacheau) intenta ganarse la vida...

    Director: Philippe Lacheau

    Género: Acción

    Actores: Yves Yan

  • Super… ¿quién? (2021) REMUX 1080p Latino

    Super… ¿quién? (2021) REMUX 1080p Latino

    2022
    Super… ¿quién? (2021) REMUX 1080p Latino

    1h 22m 2022

    Descargar Super... ¿quién? (2021) REMUX 1080p Latino. Cedric (Philippe Lacheau) intenta ganarse la...

    Director: Philippe Lacheau

    Género: Acción

    Actores: Yves Yan

descargar James Bond: Sin Tiempo Para Morir (2021) AMZN Web-DL 1080p Latino WEBDL 1080p gratis, James Bond: Sin Tiempo Para Morir (2021) AMZN Web-DL 1080p Latino WEBDL mega 1 link, James Bond: Sin Tiempo Para Morir (2021) AMZN Web-DL 1080p Latino WEBDL pelicula completa, descargar James Bond: Sin Tiempo Para Morir (2021) AMZN Web-DL 1080p Latino WEBDL gratis en mega.

James Bond: Sin Tiempo Para Morir (2021) AMZN Web-DL 1080p Latino pelicula full hd, James Bond: Sin Tiempo Para Morir (2021) AMZN Web-DL 1080p Latino mega latino, James Bond: Sin Tiempo Para Morir (2021) AMZN Web-DL 1080p Latino 4k latino, James Bond: Sin Tiempo Para Morir (2021) AMZN Web-DL 1080p Latino pelicula completa, James Bond: Sin Tiempo Para Morir (2021) AMZN Web-DL 1080p Latino descargar gratis, descargar James Bond: Sin Tiempo Para Morir (2021) AMZN Web-DL 1080p Latino pelicula latino, James Bond: Sin Tiempo Para Morir (2021) AMZN Web-DL 1080p Latino 1 link mega, James Bond: Sin Tiempo Para Morir (2021) AMZN Web-DL 1080p Latino 1 link google drive, James Bond: Sin Tiempo Para Morir (2021) AMZN Web-DL 1080p Latino hd 1080p latino.
Comentarios 0