×

¿Problemas para descargar con Mozilla, EDGE? Deshabilita la opción "Abrir vinculos en una pestaña nueva" tal como lo muestra ésta imagen.

James Bond: Sin Tiempo Para Morir (2021) WEB-DL 4K UHD HDR Latino

345 vistas

Información de James Bond: Sin Tiempo Para Morir (2021) WEB-DL 4K UHD HDR Latino

Datos de la película

  • Calidad: WEBDL
  • Audio: Español Latino AC3 2.0 WEB-DL - Ingles AC3 5.1 WEB-DL
  • Subtitulos: Español Latino SRT- FORZADOS SRT
  • Resolución: 3832x1596p
  • Formato: MKV
  • Codec: HEVC
  • Encoder: Melkor
  • Mediainfo: Clic para Mostrar Datos Ver
  • Sin Tiempo Para Morir (2021) WEB UHD HDR Latino.mkv
    Format                      : Matroska
    Format version              : Version 4
    File size                   : 17.5 GiB
    Duration                    : 2 h 43 min
    Overall bit rate            : 15.4 Mb/s
    Movie name                  : No Time to Die (2021) CinemaniaHDD.Net
    Encoded date                : UTC 2021-11-10 06:30:17
    Writing application         : mkvmerge v56.1.0 ('My Friend') 64-bit
    Writing library             : libebml v1.4.2 + libmatroska v1.6.4
    Attachments                 : CINEMANIAHD.png

    Video
    ID                          : 1
    Format                      : HEVC
    Format/Info                 : High Efficiency Video Coding
    Format profile              : Main 10@L5@High
    HDR format                  : SMPTE ST 2086, HDR10 compatible
    Codec ID                    : V_MPEGH/ISO/HEVC
    Duration                    : 2 h 43 min
    Bit rate                    : 14.3 Mb/s
    Width                       : 3 832 pixels
    Height                      : 1 596 pixels
    Display aspect ratio        : 2.40:1
    Frame rate mode             : Constant
    Frame rate                  : 23.976 (24000/1001) FPS
    Color space                 : YUV
    Chroma subsampling          : 4:2:0 (Type 2)
    Bit depth                   : 10 bits
    Bits/(Pixel*Frame)          : 0.098
    Stream size                 : 16.4 GiB (93%)
    Title                       : Web 2160p HDR [CinemaniaHDD]
    Default                     : Yes
    Forced                      : No
    Color range                 : Limited
    Color primaries             : BT.2020
    Transfer characteristics    : PQ
    Matrix coefficients         : BT.2020 non-constant
    Mastering display color pri : BT.2020
    Mastering display luminance : min: 0.0050 cd/m2, max: 1000 cd/m2
    Maximum Content Light Level : 1753 cd/m2
    Maximum Frame-Average Light : 990 cd/m2

    Audio #1
    ID                          : 2
    Format                      : AC-3
    Format/Info                 : Audio Coding 3
    Commercial name             : Dolby Digital
    Codec ID                    : A_AC3
    Duration                    : 2 h 43 min
    Bit rate mode               : Constant
    Bit rate                    : 256 kb/s
    Channel(s)                  : 2 channels
    Channel layout              : L R
    Sampling rate               : 48.0 kHz
    Frame rate                  : 31.250 FPS (1536 SPF)
    Compression mode            : Lossy
    Stream size                 : 299 MiB (2%)
    Title                       : Español Latino [CinemaniaHDD]
    Language                    : Spanish
    Service kind                : Complete Main
    Default                     : Yes
    Forced                      : Yes

    Audio #2
    ID                          : 3
    Format                      : E-AC-3 JOC
    Format/Info                 : Enhanced AC-3 with Joint Object Coding
    Commercial name             : Dolby Digital Plus with Dolby Atmos
    Codec ID                    : A_EAC3
    Duration                    : 2 h 43 min
    Bit rate mode               : Constant
    Bit rate                    : 768 kb/s
    Channel(s)                  : 6 channels
    Channel layout              : L R C LFE Ls Rs
    Sampling rate               : 48.0 kHz
    Frame rate                  : 31.250 FPS (1536 SPF)
    Compression mode            : Lossy
    Stream size                 : 898 MiB (5%)
    Title                       : Ingles [CinemaniaHDD]
    Language                    : English
    Service kind                : Complete Main
    Default                     : No
    Forced                      : No
    Complexity index            : 16
    Number of dynamic objects   : 15
    Bed channel count           : 1 channel
    Bed channel configuration   : LFE

    Text #1
    ID                          : 4
    Format                      : UTF-8
    Codec ID                    : S_TEXT/UTF8
    Codec ID/Info               : UTF-8 Plain Text
    Duration                    : 2 h 19 min
    Bit rate                    : 0 b/s
    Count of elements           : 20
    Stream size                 : 439 Bytes (0%)
    Title                       : Forzados-SRT [CinemaniaHDD]
    Language                    : Spanish
    Default                     : Yes
    Forced                      : Yes

    Text #2
    ID                          : 5
    Format                      : UTF-8
    Codec ID                    : S_TEXT/UTF8
    Codec ID/Info               : UTF-8 Plain Text
    Duration                    : 2 h 42 min
    Bit rate                    : 39 b/s
    Count of elements           : 1693
    Stream size                 : 46.7 KiB (0%)
    Title                       : Español-SRT [CinemaniaHDD]
    Language                    : Spanish
    Default                     : No
    Forced                      : No

    Text #3
    ID                          : 6
    Format                      : UTF-8
    Codec ID                    : S_TEXT/UTF8
    Codec ID/Info               : UTF-8 Plain Text
    Duration                    : 2 h 35 min
    Bit rate                    : 42 b/s
    Count of elements           : 1671
    Stream size                 : 48.4 KiB (0%)
    Title                       : Ingles-SRT [CinemaniaHDD]
    Language                    : English
    Default                     : No
    Forced                      : No

    Menu
    00:00:00.000                : Chapter 1
    00:11:57.125                : Chapter 2
    00:27:09.750                : Chapter 3
    00:43:46.000                : Chapter 4
    00:56:58.099                : Chapter 5
    01:04:09.000                : Chapter 6
    01:13:06.500                : Chapter 7
    01:22:28.832                : Chapter 8
    01:33:49.332                : Chapter 9
    01:51:42.000                : Chapter 10
    02:06:54.000                : Chapter 11
    02:25:23.500                : Chapter 12
    02:35:07.000                : Chapter 13

  • Peso: 17.5 GiB

Sinopsis

Descargar James Bond: Sin Tiempo Para Morir (2021) WEB-DL 4K UHD HDR Latino. En SIN TIEMPO PARA MORIR, Bond se ha retirado del servicio como agente en activo y disfruta de una tranquila vida en Jamaica. Pero sus días de paz acaban cuando su viejo amigo Felix Leiter de la CIA aparece pidiéndole ayuda. La misión en cuestión, que consiste en rescatar a un científico secuestrado, resulta mucho más compleja de lo esperado y pone a Bond sobre la pista de un misterioso villano armado con peligrosa tecnología de vanguardia.

Ficha técnica

Video trailer de la película

Enlaces de descarga

Rip de Bluray

Descargar James Bond: Sin Tiempo Para Morir (2021) WEB-DL 4K UHD HDR Latino




Aportes de DPeliculasHDmega la pass es:dpeliculashdmega.org Aportes de CinemaniaHD la pass es:cinemaniahdd.com
Guardado en : 4K HDR , 4K UHD , Acción , Aventura , Suspenso

Películas relacionadas

James Bond: Sin Tiempo Para Morir (2021) WEB-DL 4K UHD HDR Latino pelicula full hd, James Bond: Sin Tiempo Para Morir (2021) WEB-DL 4K UHD HDR Latino mega latino, James Bond: Sin Tiempo Para Morir (2021) WEB-DL 4K UHD HDR Latino 4k latino, James Bond: Sin Tiempo Para Morir (2021) WEB-DL 4K UHD HDR Latino pelicula completa, James Bond: Sin Tiempo Para Morir (2021) WEB-DL 4K UHD HDR Latino descargar gratis, descargar James Bond: Sin Tiempo Para Morir (2021) WEB-DL 4K UHD HDR Latino pelicula latino, James Bond: Sin Tiempo Para Morir (2021) WEB-DL 4K UHD HDR Latino 1 link mega, James Bond: Sin Tiempo Para Morir (2021) WEB-DL 4K UHD HDR Latino 1 link google drive, James Bond: Sin Tiempo Para Morir (2021) WEB-DL 4K UHD HDR Latino hd 1080p latino.
Comentarios 0