×

¿Problemas para descargar con Mozilla, EDGE? Deshabilita la opción "Abrir vinculos en una pestaña nueva" tal como lo muestra ésta imagen.

James Bond: Sin Tiempo Para Morir (2021) REMUX USA 1080p Latino

263 vistas

Información de James Bond: Sin Tiempo Para Morir (2021) REMUX USA 1080p Latino

Datos de la película

  • Calidad: Full 1080p
  • Audio: Se especifica abajo de la Sinopsis
  • Subtitulos: Español Latino PGS - Ingles PGS
  • Resolución: 1920x1080p
  • Formato: MKV
  • Codec: H.264
  • Encoder: Melkor
  • Mediainfo: Clic para Mostrar Datos Ver
  • Sin Tiempo Para Morir (2021) REMUX USA 1080p Latino.mkv
    Format                      : Matroska
    Format version              : Version 4
    File size                   : 39.3 GiB
    Duration                    : 2 h 43 min
    Overall bit rate mode       : Variable
    Overall bit rate            : 34.4 Mb/s
    Movie name                  : No Time To Die (2021) CinemaniaHDD.Net
    Encoded date                : UTC 2021-12-12 03:32:25
    Writing application         : mkvmerge v56.1.0 ('My Friend') 64-bit
    Writing library             : libebml v1.4.2 + libmatroska v1.6.4

    Video
    ID                          : 1
    Format                      : AVC
    Format/Info                 : Advanced Video Codec
    Format profile              : High@L4.1
    Format settings             : CABAC / 2 Ref Frames
    Format settings, CABAC      : Yes
    Format settings, Reference  : 2 frames
    Codec ID                    : V_MPEG4/ISO/AVC
    Duration                    : 2 h 43 min
    Bit rate mode               : Variable
    Bit rate                    : 29.4 Mb/s
    Width                       : 1 920 pixels
    Height                      : 1 080 pixels
    Display aspect ratio        : 16:9
    Frame rate mode             : Constant
    Frame rate                  : 23.976 (24000/1001) FPS
    Color space                 : YUV
    Chroma subsampling          : 4:2:0
    Bit depth                   : 8 bits
    Scan type                   : Progressive
    Bits/(Pixel*Frame)          : 0.591
    Stream size                 : 33.6 GiB (85%)
    Title                       : REMUX HD1080p [CinemaniaHDD]
    Default                     : Yes
    Forced                      : Yes

    Audio #1
    ID                          : 2
    Format                      : E-AC-3
    Format/Info                 : Enhanced AC-3
    Commercial name             : Dolby Digital Plus
    Format profile              : Blu-ray Disc
    Codec ID                    : A_EAC3
    Duration                    : 2 h 43 min
    Bit rate mode               : Constant
    Bit rate                    : 768 kb/s
    Channel(s)                  : 8 channels
    Channel layout              : L R C LFE Ls Rs Lb Rb
    Sampling rate               : 48.0 kHz
    Frame rate                  : 31.250 FPS (1536 SPF)
    Compression mode            : Lossy
    Stream size                 : 898 MiB (2%)
    Title                       : Español Latino DDP [CinemaniaHDD]
    Language                    : Spanish
    Service kind                : Complete Main
    Default                     : Yes
    Forced                      : Yes

    Audio #2
    ID                          : 3
    Format                      : MLP FBA 16-ch
    Format/Info                 : Meridian Lossless Packing FBA with 16-channel presentation
    Commercial name             : Dolby TrueHD with Dolby Atmos
    Codec ID                    : A_TRUEHD
    Duration                    : 2 h 43 min
    Bit rate mode               : Variable
    Bit rate                    : 3 060 kb/s
    Maximum bit rate            : 5 277 kb/s
    Channel(s)                  : 8 channels
    Channel layout              : L R C LFE Ls Rs Lb Rb
    Sampling rate               : 48.0 kHz
    Frame rate                  : 1 200.000 FPS (40 SPF)
    Compression mode            : Lossless
    Stream size                 : 3.49 GiB (9%)
    Title                       : Ingles THD[CinemaniaHDD]
    Language                    : English
    Default                     : No
    Forced                      : No
    Number of dynamic objects   : 11
    Bed channel count           : 1 channel
    Bed channel configuration   : LFE

    Audio #3
    ID                          : 4
    Format                      : AC-3
    Format/Info                 : Audio Coding 3
    Commercial name             : Dolby Digital
    Codec ID                    : A_AC3
    Duration                    : 2 h 43 min
    Bit rate mode               : Constant
    Bit rate                    : 640 kb/s
    Channel(s)                  : 6 channels
    Channel layout              : L R C LFE Ls Rs
    Sampling rate               : 48.0 kHz
    Frame rate                  : 31.250 FPS (1536 SPF)
    Compression mode            : Lossy
    Stream size                 : 748 MiB (2%)
    Title                       : Español Latino AC3 [CinemaniaHDD]
    Language                    : Spanish
    Service kind                : Complete Main
    Default                     : No
    Forced                      : No

    Audio #4
    ID                          : 5
    Format                      : AC-3
    Format/Info                 : Audio Coding 3
    Commercial name             : Dolby Digital
    Codec ID                    : A_AC3
    Duration                    : 2 h 43 min
    Bit rate mode               : Constant
    Bit rate                    : 448 kb/s
    Channel(s)                  : 6 channels
    Channel layout              : L R C LFE Ls Rs
    Sampling rate               : 48.0 kHz
    Frame rate                  : 31.250 FPS (1536 SPF)
    Compression mode            : Lossy
    Stream size                 : 524 MiB (1%)
    Title                       : Ingles AC3 [CinemaniaHDD]
    Language                    : English
    Service kind                : Complete Main
    Default                     : No
    Forced                      : No

    Text #1
    ID                          : 6
    Format                      : PGS
    Muxing mode                 : zlib
    Codec ID                    : S_HDMV/PGS
    Codec ID/Info               : Picture based subtitle format used on BDs/HD-DVDs
    Duration                    : 2 h 16 min
    Bit rate                    : 76 b/s
    Count of elements           : 8
    Stream size                 : 75.7 KiB (0%)
    Title                       : Forzados-PGS [CinemaniaHDD]
    Language                    : Spanish
    Default                     : No
    Forced                      : No

    Text #2
    ID                          : 7
    Format                      : PGS
    Muxing mode                 : zlib
    Codec ID                    : S_HDMV/PGS
    Codec ID/Info               : Picture based subtitle format used on BDs/HD-DVDs
    Duration                    : 2 h 42 min
    Bit rate                    : 27.4 kb/s
    Count of elements           : 3388
    Stream size                 : 31.8 MiB (0%)
    Title                       : Español-PGS [CinemaniaHDD]
    Language                    : Spanish
    Default                     : No
    Forced                      : No

    Text #3
    ID                          : 8
    Format                      : PGS
    Muxing mode                 : zlib
    Codec ID                    : S_HDMV/PGS
    Codec ID/Info               : Picture based subtitle format used on BDs/HD-DVDs
    Duration                    : 2 h 39 min
    Bit rate                    : 34.9 kb/s
    Count of elements           : 4250
    Stream size                 : 39.8 MiB (0%)
    Title                       : Ingles-PGS [CinemaniaHDD]
    Language                    : English
    Default                     : No
    Forced                      : No

    Text #4
    ID                          : 9
    Format                      : UTF-8
    Codec ID                    : S_TEXT/UTF8
    Codec ID/Info               : UTF-8 Plain Text
    Duration                    : 2 h 19 min
    Bit rate                    : 0 b/s
    Count of elements           : 20
    Stream size                 : 439 Bytes (0%)
    Title                       : Forzados-SRT [CinemaniaHDD]
    Language                    : Spanish
    Default                     : Yes
    Forced                      : Yes

    Text #5
    ID                          : 10
    Format                      : UTF-8
    Codec ID                    : S_TEXT/UTF8
    Codec ID/Info               : UTF-8 Plain Text
    Duration                    : 2 h 42 min
    Bit rate                    : 39 b/s
    Count of elements           : 1693
    Stream size                 : 46.7 KiB (0%)
    Title                       : Español-SRT [CinemaniaHDD]
    Language                    : Spanish
    Default                     : No
    Forced                      : No

    Menu
    00:00:00.083                : :Chapter 1
    00:06:51.661                : :Chapter 2
    00:11:57.216                : :Chapter 3
    00:18:07.127                : :Chapter 4
    00:27:09.544                : :Chapter 5
    00:32:39.374                : :Chapter 6
    00:43:46.081                : :Chapter 7
    00:57:43.626                : :Chapter 8
    01:04:06.384                : :Chapter 9
    01:13:06.548                : :Chapter 10
    01:22:28.902                : :Chapter 11
    01:33:49.373                : :Chapter 12
    01:41:08.145                : :Chapter 13
    01:52:37.375                : :Chapter 14
    01:58:30.603                : :Chapter 15
    02:05:34.777                : :Chapter 16
    02:13:54.985                : :Chapter 17
    02:23:59.422                : :Chapter 18
    02:29:10.608                : :Chapter 19
    02:36:51.944                : :Chapter 20

  • Peso: 39.3 GiB

Sinopsis

Descargar James Bond: Sin Tiempo Para Morir (2021) REMUX USA 1080p Latino. En SIN TIEMPO PARA MORIR, Bond se ha retirado del servicio como agente en activo y disfruta de una tranquila vida en Jamaica. Pero sus días de paz acaban cuando su viejo amigo Felix Leiter de la CIA aparece pidiéndole ayuda. La misión en cuestión, que consiste en rescatar a un científico secuestrado, resulta mucho más compleja de lo esperado y pone a Bond sobre la pista de un misterioso villano armado con peligrosa tecnología de vanguardia.

Español Latino EAC3 7.1 & AC3 5.1 BD – Ingles TrueHD 7.1 + AC3 5.1 BD

Ficha técnica

Video trailer de la película

Enlaces de descarga

Rip de Bluray

Descargar James Bond: Sin Tiempo Para Morir (2021) REMUX USA 1080p Latino




Aportes de DPeliculasHDmega la pass es:dpeliculashdmega.org Aportes de CinemaniaHD la pass es:cinemaniahdd.com
Guardado en : Acción , Aventura , Remux , Suspenso

Películas relacionadas

  • DC Liga De Supermascotas (2022) HD 1080p Latino

    DC Liga De Supermascotas (2022) HD 1080p Latino

    2022
    DC Liga De Supermascotas (2022) HD 1080p Latino

    1h 45m 2022

    Descargar DC Liga De Supermascotas (2022) HD 1080p Latino. Krypto el Superperro y Superman son amigos...

    Director: Sam Levine

    Género: Acción

    Actores: Yvette Nicole Brown

  • Invitacion Al Infierno (2022) MA WEB-DL 1080p Latino

    Invitacion Al Infierno (2022) MA WEB-DL 1080p Latino

    2022
    Invitacion Al Infierno (2022) MA WEB-DL 1080p Latino

    1h 45m 2022

    Descargar Invitacion Al Infierno (2022) MA WEB-DL 1080p Latino. Tras la muerte de su madre y quedarse...

    Director: Jessica M. Thompson

    Género: Suspenso

    Actores: Virág Bárány

  • Tremors (1990) REMUX 4K HDR Latino – CMHDD

    Tremors (1990) REMUX 4K HDR Latino – CMHDD

    1990
    Tremors (1990) REMUX 4K HDR Latino – CMHDD

    1h 35m 1990

    En Perfección, un pequeño pueblo al borde del desierto de Nevada, algo parece suceder debajo de la...

    Director: Susan Bierbaum

    Género: Acción

    Actores: Victor Wong

descargar James Bond: Sin Tiempo Para Morir (2021) REMUX USA 1080p Latino Full 1080p 1080p gratis, James Bond: Sin Tiempo Para Morir (2021) REMUX USA 1080p Latino Full 1080p mega 1 link, James Bond: Sin Tiempo Para Morir (2021) REMUX USA 1080p Latino Full 1080p pelicula completa, descargar James Bond: Sin Tiempo Para Morir (2021) REMUX USA 1080p Latino Full 1080p gratis en mega.

James Bond: Sin Tiempo Para Morir (2021) REMUX USA 1080p Latino pelicula full hd, James Bond: Sin Tiempo Para Morir (2021) REMUX USA 1080p Latino mega latino, James Bond: Sin Tiempo Para Morir (2021) REMUX USA 1080p Latino 4k latino, James Bond: Sin Tiempo Para Morir (2021) REMUX USA 1080p Latino pelicula completa, James Bond: Sin Tiempo Para Morir (2021) REMUX USA 1080p Latino descargar gratis, descargar James Bond: Sin Tiempo Para Morir (2021) REMUX USA 1080p Latino pelicula latino, James Bond: Sin Tiempo Para Morir (2021) REMUX USA 1080p Latino 1 link mega, James Bond: Sin Tiempo Para Morir (2021) REMUX USA 1080p Latino 1 link google drive, James Bond: Sin Tiempo Para Morir (2021) REMUX USA 1080p Latino hd 1080p latino.
Comentarios 0