James Bond: Sin Tiempo Para Morir (2021) PLACEBO Full HD 1080p Latino

598 vistas

Información de James Bond: Sin Tiempo Para Morir (2021) PLACEBO Full HD 1080p Latino

Datos de la película

  • Calidad: Full 1080p
  • Audio: Se especifica abajo de la Sinopsis
  • Subtitulos: Español Latino PGS - Ingles PGS
  • Resolución: 1920x1080p
  • Formato: MKV
  • Codec: H.264
  • Encoder: Melkor
  • Mediainfo: Clic para Mostrar Datos Ver
  • Sin Tiempo Para Morir (2021) PLACEBO 1080p Latino.mkv
    Format                      : Matroska
    Format version              : Version 4
    File size                   : 14.1 GiB
    Duration                    : 2 h 43 min
    Overall bit rate mode       : Variable
    Overall bit rate            : 12.3 Mb/s
    Movie name                  : No Time to Die (2021) CinemaniaHDD.Net
    Encoded date                : UTC 2021-12-12 21:48:38
    Writing application         : mkvmerge v56.1.0 ('My Friend') 64-bit
    Writing library             : libebml v1.4.2 + libmatroska v1.6.4

    Video
    ID                          : 1
    Format                      : AVC
    Format/Info                 : Advanced Video Codec
    Format profile              : High@L4.1
    Format settings             : CABAC / 4 Ref Frames
    Format settings, CABAC      : Yes
    Format settings, Reference  : 4 frames
    Codec ID                    : V_MPEG4/ISO/AVC
    Duration                    : 2 h 43 min
    Bit rate                    : 7 335 kb/s
    Width                       : 1 920 pixels
    Height                      : 1 080 pixels
    Display aspect ratio        : 16:9
    Frame rate mode             : Constant
    Frame rate                  : 23.976 (24000/1001) FPS
    Color space                 : YUV
    Chroma subsampling          : 4:2:0
    Bit depth                   : 8 bits
    Scan type                   : Progressive
    Bits/(Pixel*Frame)          : 0.148
    Stream size                 : 8.38 GiB (59%)
    Title                       : Full HD1080p [CinemaniaHDD]
    Writing library             : x264 core 163 r3059 b684ebe0
    Encoding settings           : cabac=1 / ref=4 / deblock=1:0:0 / analyse=0x3:0x133 / me=tesa / subme=11 / psy=1 / psy_rd=1.00:0.00 / mixed_ref=1 / me_range=24 / chroma_me=1 / trellis=2 / 8x8dct=1 / cqm=0 / deadzone=21,11 / fast_pskip=0 / chroma_qp_offset=-2 / threads=24 / lookahead_threads=6 / sliced_threads=0 / nr=0 / decimate=1 / interlaced=0 / bluray_compat=0 / constrained_intra=0 / bframes=16 / b_pyramid=2 / b_adapt=2 / b_bias=0 / direct=3 / weightb=1 / open_gop=0 / weightp=2 / keyint=240 / keyint_min=24 / scenecut=40 / intra_refresh=0 / rc_lookahead=60 / rc=crf / mbtree=1 / crf=19.0 / qcomp=0.60 / qpmin=0 / qpmax=69 / qpstep=4 / vbv_maxrate=62500 / vbv_bufsize=78125 / crf_max=0.0 / nal_hrd=none / filler=0 / ip_ratio=1.40 / aq=1:1.00
    Default                     : Yes
    Forced                      : Yes
    Color range                 : Limited
    Color primaries             : BT.709
    Transfer characteristics    : BT.709
    Matrix coefficients         : BT.709

    Audio #1
    ID                          : 2
    Format                      : E-AC-3
    Format/Info                 : Enhanced AC-3
    Codec ID                    : A_EAC3
    Duration                    : 2 h 43 min
    Bit rate                    : 768 kb/s
    Channel(s)                  : 8 channels
    Sampling rate               : 48.0 kHz
    Frame rate                  : 31.250 FPS (1536 SPF)
    Compression mode            : Lossy
    Stream size                 : 898 MiB (6%)
    Title                       : Español Latino DDP [CinemaniaHDD]
    Language                    : Spanish
    Default                     : No
    Forced                      : No

    Audio #2
    ID                          : 3
    ID in the original source m : 4352 (0x1100)
    Format                      : MLP FBA 16-ch
    Format/Info                 : Meridian Lossless Packing FBA with 16-channel presentation
    Commercial name             : Dolby TrueHD with Dolby Atmos
    Codec ID                    : A_TRUEHD
    Duration                    : 2 h 43 min
    Bit rate mode               : Variable
    Bit rate                    : 3 057 kb/s
    Maximum bit rate            : 5 397 kb/s
    Channel(s)                  : 8 channels
    Channel layout              : L R C LFE Ls Rs Lb Rb
    Sampling rate               : 48.0 kHz
    Frame rate                  : 1 200.000 FPS (40 SPF)
    Compression mode            : Lossless
    Stream size                 : 3.49 GiB (25%)
    Title                       : Ingles THD[CinemaniaHDD]
    Language                    : English
    Default                     : No
    Forced                      : No
    Original source medium      : Blu-ray
    Number of dynamic objects   : 11
    Bed channel count           : 1 channel
    Bed channel configuration   : LFE

    Audio #3
    ID                          : 4
    Format                      : AC-3
    Format/Info                 : Audio Coding 3
    Commercial name             : Dolby Digital
    Codec ID                    : A_AC3
    Duration                    : 2 h 43 min
    Bit rate mode               : Constant
    Bit rate                    : 640 kb/s
    Channel(s)                  : 6 channels
    Channel layout              : L R C LFE Ls Rs
    Sampling rate               : 48.0 kHz
    Frame rate                  : 31.250 FPS (1536 SPF)
    Compression mode            : Lossy
    Stream size                 : 749 MiB (5%)
    Title                       : Español Latino AC3 [CinemaniaHDD]
    Language                    : Spanish
    Service kind                : Complete Main
    Default                     : Yes
    Forced                      : Yes

    Audio #4
    ID                          : 5
    ID in the original source m : 4352 (0x1100)
    Format                      : AC-3
    Format/Info                 : Audio Coding 3
    Commercial name             : Dolby Digital
    Codec ID                    : A_AC3
    Duration                    : 2 h 43 min
    Bit rate mode               : Constant
    Bit rate                    : 448 kb/s
    Channel(s)                  : 6 channels
    Channel layout              : L R C LFE Ls Rs
    Sampling rate               : 48.0 kHz
    Frame rate                  : 31.250 FPS (1536 SPF)
    Compression mode            : Lossy
    Stream size                 : 524 MiB (4%)
    Title                       : Ingles AC3 [CinemaniaHDD]
    Language                    : English
    Service kind                : Complete Main
    Default                     : No
    Forced                      : No
    Original source medium      : Blu-ray

    Text #1
    ID                          : 6
    Format                      : PGS
    Muxing mode                 : zlib
    Codec ID                    : S_HDMV/PGS
    Codec ID/Info               : Picture based subtitle format used on BDs/HD-DVDs
    Duration                    : 2 h 16 min
    Bit rate                    : 76 b/s
    Count of elements           : 8
    Stream size                 : 75.7 KiB (0%)
    Title                       : Forzados-PGS [CinemaniaHDD]
    Language                    : Spanish
    Default                     : No
    Forced                      : No

    Text #2
    ID                          : 7
    Format                      : PGS
    Muxing mode                 : zlib
    Codec ID                    : S_HDMV/PGS
    Codec ID/Info               : Picture based subtitle format used on BDs/HD-DVDs
    Duration                    : 2 h 42 min
    Bit rate                    : 27.4 kb/s
    Count of elements           : 3388
    Stream size                 : 31.8 MiB (0%)
    Title                       : Español-PGS [CinemaniaHDD]
    Language                    : Spanish
    Default                     : No
    Forced                      : No

    Text #3
    ID                          : 8
    ID in the original source m : 4608 (0x1200)
    Format                      : PGS
    Muxing mode                 : zlib
    Codec ID                    : S_HDMV/PGS
    Codec ID/Info               : Picture based subtitle format used on BDs/HD-DVDs
    Duration                    : 2 h 39 min
    Bit rate                    : 35.4 kb/s
    Count of elements           : 4296
    Stream size                 : 40.4 MiB (0%)
    Title                       : Ingles-PGS [CinemaniaHDD]
    Language                    : English
    Default                     : No
    Forced                      : No
    Original source medium      : Blu-ray

    Text #4
    ID                          : 9
    Format                      : UTF-8
    Codec ID                    : S_TEXT/UTF8
    Codec ID/Info               : UTF-8 Plain Text
    Duration                    : 2 h 19 min
    Bit rate                    : 0 b/s
    Count of elements           : 20
    Stream size                 : 439 Bytes (0%)
    Title                       : Forzados-SRT [CinemaniaHDD]
    Language                    : Spanish
    Default                     : Yes
    Forced                      : Yes

    Text #5
    ID                          : 10
    Format                      : UTF-8
    Codec ID                    : S_TEXT/UTF8
    Codec ID/Info               : UTF-8 Plain Text
    Duration                    : 2 h 42 min
    Bit rate                    : 39 b/s
    Count of elements           : 1693
    Stream size                 : 46.7 KiB (0%)
    Title                       : Español-SRT [CinemaniaHDD]
    Language                    : Spanish
    Default                     : No
    Forced                      : No

    Menu
    00:00:00.000                : Chapter 01
    00:07:00.878                : Chapter 02
    00:12:06.434                : Chapter 03
    00:18:16.345                : Chapter 04
    00:27:19.262                : Chapter 05
    00:32:48.591                : Chapter 06
    00:43:55.299                : Chapter 07
    00:57:52.844                : Chapter 08
    01:04:15.601                : Chapter 09
    01:13:15.766                : Chapter 10
    01:22:38.119                : Chapter 11
    01:33:58.591                : Chapter 12
    01:41:17.362                : Chapter 13
    01:52:46.593                : Chapter 14
    01:58:39.821                : Chapter 15
    02:05:43.994                : Chapter 16
    02:14:04.202                : Chapter 17
    02:24:08.640                : Chapter 18
    02:29:19.825                : Chapter 19
    02:37:01.161                : Chapter 20

    Source: BD50 CEE

  • Peso: 14.1 GiB

Sinopsis

Descargar James Bond: Sin Tiempo Para Morir (2021) PLACEBO Full HD 1080p Latino. En SIN TIEMPO PARA MORIR, Bond se ha retirado del servicio como agente en activo y disfruta de una tranquila vida en Jamaica. Pero sus días de paz acaban cuando su viejo amigo Felix Leiter de la CIA aparece pidiéndole ayuda. La misión en cuestión, que consiste en rescatar a un científico secuestrado, resulta mucho más compleja de lo esperado y pone a Bond sobre la pista de un misterioso villano armado con peligrosa tecnología de vanguardia.

Español Latino EAC3 7.1 & AC3 5.1 BD – Ingles TrueHD 7.1 + AC3 5.1 BD

Ficha técnica

Video trailer de la película

Enlaces de descarga

Rip de Bluray

Descargar James Bond: Sin Tiempo Para Morir (2021) PLACEBO Full HD 1080p Latino




Aportes de DPeliculasHDmega la pass es:dpeliculashdmega.org Aportes de CinemaniaHD la pass es:cinemaniahdd.com

Películas relacionadas

  • Ghostbusters: El Legado (2021) HD 1080p Latino

    Ghostbusters: El Legado (2021) HD 1080p Latino

    2021
    Ghostbusters: El Legado (2021) HD 1080p Latino

    2h 4m 2021

    Descargar Ghostbusters: El Legado (2021) HD 1080p Latino. Una madre soltera y sus dos hijos se van a...

    Director: Jason Reitman

    Género: Aventura

    Actores: Tracy Letts

  • Eternals (2021) HD 1080p Latino

    Eternals (2021) HD 1080p Latino

    2021
    Eternals (2021) HD 1080p Latino

    2h 36m 2021

    Descargar Eternals (2021) HD 1080p Latino. Hace millones de años, los seres cósmicos conocidos como...

    Director: Simon Warnock

    Género: Acción

    Actores: Zain Al Rafeea

  • Eternals (2021) PLACEBO Full HD 1080p Latino

    Eternals (2021) PLACEBO Full HD 1080p Latino

    2021
    Eternals (2021) PLACEBO Full HD 1080p Latino

    2h 36m 2021

    Descargar Eternals (2021) PLACEBO Full HD 1080p Latino. Hace millones de años, los seres cósmicos conocidos...

    Director: Simon Warnock

    Género: Acción

    Actores: Zain Al Rafeea

  • Eternals (2021) REMUX 1080p Latino

    Eternals (2021) REMUX 1080p Latino

    2021
    Eternals (2021) REMUX 1080p Latino

    2h 36m 2021

    Descargar Eternals (2021) REMUX 1080p Latino. Hace millones de años, los seres cósmicos conocidos como...

    Director: Simon Warnock

    Género: Acción

    Actores: Zain Al Rafeea

  • Atrapada En El Fondo Del Mar (2020) HD 1080p Latino

    Atrapada En El Fondo Del Mar (2020) HD 1080p Latino

    2020
    Atrapada En El Fondo Del Mar (2020) HD 1080p Latino

    1h 22m 2020

    Descargar Atrapada En El Fondo Del Mar (2020) HD 1080p Latino. Las hermanastras Ida y Tuva sufren un...

    Director: Joachim Hedén

    Género: Acción

    Actores: Trine Wiggen

James Bond: Sin Tiempo Para Morir (2021) PLACEBO Full HD 1080p Latino pelicula full hd, James Bond: Sin Tiempo Para Morir (2021) PLACEBO Full HD 1080p Latino mega latino, James Bond: Sin Tiempo Para Morir (2021) PLACEBO Full HD 1080p Latino 4k latino, James Bond: Sin Tiempo Para Morir (2021) PLACEBO Full HD 1080p Latino pelicula completa, James Bond: Sin Tiempo Para Morir (2021) PLACEBO Full HD 1080p Latino descargar gratis, descargar James Bond: Sin Tiempo Para Morir (2021) PLACEBO Full HD 1080p Latino pelicula latino, James Bond: Sin Tiempo Para Morir (2021) PLACEBO Full HD 1080p Latino 1 link mega, James Bond: Sin Tiempo Para Morir (2021) PLACEBO Full HD 1080p Latino 1 link google drive, James Bond: Sin Tiempo Para Morir (2021) PLACEBO Full HD 1080p Latino hd 1080p latino.
Comentarios 0