×

¿Problemas para descargar con Mozilla, EDGE? Deshabilita la opción "Abrir vinculos en una pestaña nueva" tal como lo muestra ésta imagen.

James Bond: Sin Tiempo Para Morir (2021) HD 1080p Latino

358 vistas

Información de James Bond: Sin Tiempo Para Morir (2021) HD 1080p Latino

Datos de la película

  • Calidad: 1080p
  • Audio: Español Latino AC3 5.1 BLURAY - Ingles AC3 5.1 BLURAY
  • Subtitulos: Español Latino SRT- FORZADOS SRT
  • Resolución: 1920x804p
  • Formato: MKV
  • Codec: H.264
  • Encoder: Melkor
  • Mediainfo: Clic para Mostrar Datos Ver
  • Sin Tiempo Para Morir (2021) HD 1080p Latino.mkv
    Format                      : Matroska
    Format version              : Version 4
    File size                   : 4.89 GiB
    Duration                    : 2 h 43 min
    Overall bit rate            : 4 278 kb/s
    Movie name                  : No Time to Die (2021) CinemaniaHDD.Net
    Encoded date                : UTC 2021-12-12 06:45:37
    Writing application         : mkvmerge v56.1.0 ('My Friend') 64-bit
    Writing library             : libebml v1.4.2 + libmatroska v1.6.4

    Video
    ID                          : 1
    Format                      : AVC
    Format/Info                 : Advanced Video Codec
    Format profile              : High@L4.1
    Format settings             : CABAC / 5 Ref Frames
    Format settings, CABAC      : Yes
    Format settings, Reference  : 5 frames
    Codec ID                    : V_MPEG4/ISO/AVC
    Duration                    : 2 h 43 min
    Bit rate                    : 3 188 kb/s
    Width                       : 1 920 pixels
    Height                      : 804 pixels
    Display aspect ratio        : 2.40:1
    Frame rate mode             : Constant
    Frame rate                  : 23.976 (24000/1001) FPS
    Color space                 : YUV
    Chroma subsampling          : 4:2:0
    Bit depth                   : 8 bits
    Scan type                   : Progressive
    Bits/(Pixel*Frame)          : 0.086
    Stream size                 : 3.64 GiB (75%)
    Title                       : HD1080p [CinemaniaHDD]
    Writing library             : x264 core 163 r3059 b684ebe0
    Encoding settings           : cabac=1 / ref=5 / deblock=1:-1:-1 / analyse=0x3:0x133 / me=umh / subme=9 / psy=1 / psy_rd=1.00:0.15 / mixed_ref=1 / me_range=16 / chroma_me=1 / trellis=2 / 8x8dct=1 / cqm=0 / deadzone=21,11 / fast_pskip=1 / chroma_qp_offset=-3 / threads=24 / lookahead_threads=2 / sliced_threads=0 / nr=0 / decimate=1 / interlaced=0 / bluray_compat=0 / constrained_intra=0 / bframes=3 / b_pyramid=2 / b_adapt=2 / b_bias=0 / direct=3 / weightb=1 / open_gop=0 / weightp=2 / keyint=240 / keyint_min=24 / scenecut=40 / intra_refresh=0 / rc_lookahead=60 / rc=crf / mbtree=1 / crf=22.5 / qcomp=0.60 / qpmin=0 / qpmax=69 / qpstep=4 / vbv_maxrate=62500 / vbv_bufsize=78125 / crf_max=0.0 / nal_hrd=none / filler=0 / ip_ratio=1.40 / aq=1:1.00
    Default                     : Yes
    Forced                      : Yes
    Color range                 : Limited
    Color primaries             : BT.709
    Transfer characteristics    : BT.709
    Matrix coefficients         : BT.709

    Audio #1
    ID                          : 2
    Format                      : AC-3
    Format/Info                 : Audio Coding 3
    Commercial name             : Dolby Digital
    Codec ID                    : A_AC3
    Duration                    : 2 h 43 min
    Bit rate mode               : Constant
    Bit rate                    : 640 kb/s
    Channel(s)                  : 6 channels
    Channel layout              : L R C LFE Ls Rs
    Sampling rate               : 48.0 kHz
    Frame rate                  : 31.250 FPS (1536 SPF)
    Compression mode            : Lossy
    Stream size                 : 749 MiB (15%)
    Title                       : Español Latino [CinemaniaHDD]
    Language                    : Spanish
    Service kind                : Complete Main
    Default                     : Yes
    Forced                      : Yes

    Audio #2
    ID                          : 3
    ID in the original source m : 4352 (0x1100)
    Format                      : AC-3
    Format/Info                 : Audio Coding 3
    Commercial name             : Dolby Digital
    Codec ID                    : A_AC3
    Duration                    : 2 h 43 min
    Bit rate mode               : Constant
    Bit rate                    : 448 kb/s
    Channel(s)                  : 6 channels
    Channel layout              : L R C LFE Ls Rs
    Sampling rate               : 48.0 kHz
    Frame rate                  : 31.250 FPS (1536 SPF)
    Compression mode            : Lossy
    Stream size                 : 524 MiB (10%)
    Title                       : Ingles [CinemaniaHDD]
    Language                    : English
    Service kind                : Complete Main
    Default                     : No
    Forced                      : No
    Original source medium      : Blu-ray

    Text #1
    ID                          : 4
    Format                      : UTF-8
    Codec ID                    : S_TEXT/UTF8
    Codec ID/Info               : UTF-8 Plain Text
    Duration                    : 2 h 19 min
    Bit rate                    : 0 b/s
    Count of elements           : 20
    Stream size                 : 439 Bytes (0%)
    Title                       : Forzados-SRT [CinemaniaHDD]
    Language                    : Spanish
    Default                     : Yes
    Forced                      : Yes

    Text #2
    ID                          : 5
    Format                      : UTF-8
    Codec ID                    : S_TEXT/UTF8
    Codec ID/Info               : UTF-8 Plain Text
    Duration                    : 2 h 42 min
    Bit rate                    : 39 b/s
    Count of elements           : 1693
    Stream size                 : 46.7 KiB (0%)
    Title                       : Español-SRT [CinemaniaHDD]
    Language                    : Spanish
    Default                     : No
    Forced                      : No

    Text #3
    ID                          : 6
    Format                      : UTF-8
    Codec ID                    : S_TEXT/UTF8
    Codec ID/Info               : UTF-8 Plain Text
    Duration                    : 2 h 35 min
    Bit rate                    : 43 b/s
    Count of elements           : 1718
    Stream size                 : 49.2 KiB (0%)
    Title                       : Ingles-SRT [CinemaniaHDD]
    Language                    : English
    Default                     : No
    Forced                      : No

    Menu
    00:00:00.000                : Chapter 01
    00:07:00.878                : Chapter 02
    00:12:06.434                : Chapter 03
    00:18:16.345                : Chapter 04
    00:27:19.262                : Chapter 05
    00:32:48.591                : Chapter 06
    00:43:55.299                : Chapter 07
    00:57:52.844                : Chapter 08
    01:04:15.601                : Chapter 09
    01:13:15.766                : Chapter 10
    01:22:38.119                : Chapter 11
    01:33:58.591                : Chapter 12
    01:41:17.362                : Chapter 13
    01:52:46.593                : Chapter 14
    01:58:39.821                : Chapter 15
    02:05:43.994                : Chapter 16
    02:14:04.202                : Chapter 17
    02:24:08.640                : Chapter 18
    02:29:19.825                : Chapter 19
    02:37:01.161                : Chapter 20

    Source: BD50 CEE

  • Peso: 4.89 GiB

Sinopsis

Descargar James Bond: Sin Tiempo Para Morir (2021) HD 1080p Latino. En SIN TIEMPO PARA MORIR, Bond se ha retirado del servicio como agente en activo y disfruta de una tranquila vida en Jamaica. Pero sus días de paz acaban cuando su viejo amigo Felix Leiter de la CIA aparece pidiéndole ayuda. La misión en cuestión, que consiste en rescatar a un científico secuestrado, resulta mucho más compleja de lo esperado y pone a Bond sobre la pista de un misterioso villano armado con peligrosa tecnología de vanguardia.

Ficha técnica

Video trailer de la película

Enlaces de descarga

Rip de Bluray

Descargar James Bond: Sin Tiempo Para Morir (2021) HD 1080p Latino




Aportes de DPeliculasHDmega la pass es:dpeliculashdmega.org Aportes de CinemaniaHD la pass es:cinemaniahdd.com
Guardado en : Acción , Aventura , HD 1080p , Suspenso

Películas relacionadas

  • Wire Room (2022) HD 1080p Latino

    Wire Room (2022) HD 1080p Latino

    2022
    Wire Room (2022) HD 1080p Latino

    1h 37m 2022

    Descargar Wire Room (2022) HD 1080p Latino. Mientras está de servicio en la sala de cables, un agente...

    Director: Matt Eskandari

    Género: Acción

    Actores: Texas Battle

  • Wire Room (2022) PLACEBO Full HD 1080p Latino

    Wire Room (2022) PLACEBO Full HD 1080p Latino

    2022
    Wire Room (2022) PLACEBO Full HD 1080p Latino

    1h 37m 2022

    Descargar Wire Room (2022) PLACEBO Full HD 1080p Latino. Mientras está de servicio en la sala de cables,...

    Director: Matt Eskandari

    Género: Acción

    Actores: Texas Battle

  • Wire Room (2022) REMUX 1080p Latino

    Wire Room (2022) REMUX 1080p Latino

    2022
    Wire Room (2022) REMUX 1080p Latino

    1h 37m 2022

    Descargar Wire Room (2022) REMUX 1080p Latino. Mientras está de servicio en la sala de cables, un agente...

    Director: Matt Eskandari

    Género: Acción

    Actores: Texas Battle

  • Alarido (2022) HD 1080p Latino

    Alarido (2022) HD 1080p Latino

    2022
    Alarido (2022) HD 1080p Latino

    1h 29m 2022

    Descargar Alarido (2022) HD 1080p Latino. Una joven madre soltera es cautiva junto con sus dos hijos...

    Director: D.J. Caruso

    Género: HD 1080p

    Actores: Vincent Gallo

  • Alarido (2022) PLACEBO Full HD 1080p Latino

    Alarido (2022) PLACEBO Full HD 1080p Latino

    2022
    Alarido (2022) PLACEBO Full HD 1080p Latino

    1h 29m 2022

    Descargar Alarido (2022) PLACEBO Full HD 1080p Latino. Una joven madre soltera es cautiva junto con sus...

    Director: D.J. Caruso

    Género: FULL 1080p Plateadas

    Actores: Vincent Gallo

descargar James Bond: Sin Tiempo Para Morir (2021) HD 1080p Latino 1080p 1080p gratis, James Bond: Sin Tiempo Para Morir (2021) HD 1080p Latino 1080p mega 1 link, James Bond: Sin Tiempo Para Morir (2021) HD 1080p Latino 1080p pelicula completa, descargar James Bond: Sin Tiempo Para Morir (2021) HD 1080p Latino 1080p gratis en mega.

James Bond: Sin Tiempo Para Morir (2021) HD 1080p Latino pelicula full hd, James Bond: Sin Tiempo Para Morir (2021) HD 1080p Latino mega latino, James Bond: Sin Tiempo Para Morir (2021) HD 1080p Latino 4k latino, James Bond: Sin Tiempo Para Morir (2021) HD 1080p Latino pelicula completa, James Bond: Sin Tiempo Para Morir (2021) HD 1080p Latino descargar gratis, descargar James Bond: Sin Tiempo Para Morir (2021) HD 1080p Latino pelicula latino, James Bond: Sin Tiempo Para Morir (2021) HD 1080p Latino 1 link mega, James Bond: Sin Tiempo Para Morir (2021) HD 1080p Latino 1 link google drive, James Bond: Sin Tiempo Para Morir (2021) HD 1080p Latino hd 1080p latino.
Comentarios 0