×

¿Problemas para descargar con Mozilla, EDGE? Deshabilita la opción "Abrir vinculos en una pestaña nueva" tal como lo muestra ésta imagen.

Sin Señas Particulares (2020) REMUX 1080p Latino

92 vistas

Información de Sin Señas Particulares (2020) REMUX 1080p Latino

Datos de la película

  • Calidad: Full 1080p
  • Audio: Español Latino DTS 5.1 BLURAY
  • Subtitulos: No
  • Resolución: 1920x1080p
  • Formato: MKV
  • Codec: H.264
  • Encoder: Melkor
  • Mediainfo: Clic para Mostrar Datos Ver
  • Sin Señas Particulares (2020) REMUX 1080p Latino.mkv
    Format                      : Matroska
    Format version              : Version 4
    File size                   : 20.6 GiB
    Duration                    : 1 h 39 min
    Overall bit rate mode       : Variable
    Overall bit rate            : 29.8 Mb/s
    Movie name                  : Sin Señas Particulares (2020) CinemaniaHDD.Net
    Encoded date                : UTC 2022-04-16 16:05:33
    Writing application         : mkvmerge v56.1.0 ('My Friend') 64-bit
    Writing library             : libebml v1.4.2 + libmatroska v1.6.4
    Attachments                 : CINEMANIAHD.png

    Video
    ID                          : 1
    ID in the original source m : 4113 (0x1011)
    Format                      : AVC
    Format/Info                 : Advanced Video Codec
    Format profile              : High@L4.1
    Format settings             : CABAC / 4 Ref Frames
    Format settings, CABAC      : Yes
    Format settings, Reference  : 4 frames
    Codec ID                    : V_MPEG4/ISO/AVC
    Duration                    : 1 h 39 min
    Bit rate mode               : Variable
    Bit rate                    : 25.0 Mb/s
    Maximum bit rate            : 30.0 Mb/s
    Width                       : 1 920 pixels
    Height                      : 1 080 pixels
    Display aspect ratio        : 16:9
    Frame rate mode             : Constant
    Frame rate                  : 24.000 FPS
    Color space                 : YUV
    Chroma subsampling          : 4:2:0
    Bit depth                   : 8 bits
    Scan type                   : Progressive
    Bits/(Pixel*Frame)          : 0.502
    Stream size                 : 17.3 GiB (84%)
    Title                       : REMUX HD1080p [CinemaniaHDD]
    Default                     : Yes
    Forced                      : Yes
    Color range                 : Limited
    Color primaries             : BT.709
    Transfer characteristics    : BT.709
    Matrix coefficients         : BT.709
    Original source medium      : Blu-ray

    Audio #1
    ID                          : 2
    ID in the original source m : 4353 (0x1101)
    Format                      : DTS XLL
    Format/Info                 : Digital Theater Systems
    Commercial name             : DTS-HD Master Audio
    Codec ID                    : A_DTS
    Duration                    : 1 h 39 min
    Bit rate mode               : Variable
    Bit rate                    : 3 249 kb/s
    Channel(s)                  : 6 channels
    Channel layout              : C L R Ls Rs LFE
    Sampling rate               : 48.0 kHz
    Frame rate                  : 93.750 FPS (512 SPF)
    Bit depth                   : 24 bits
    Compression mode            : Lossless
    Stream size                 : 2.25 GiB (11%)
    Title                       : Español Latino [CinemaniaHDD]
    Language                    : Spanish
    Default                     : Yes
    Forced                      : Yes
    Original source medium      : Blu-ray

    Audio #2
    ID                          : 3
    Format                      : DTS
    Format/Info                 : Digital Theater Systems
    Codec ID                    : A_DTS
    Duration                    : 1 h 39 min
    Bit rate mode               : Constant
    Bit rate                    : 1 509 kb/s
    Channel(s)                  : 6 channels
    Channel layout              : C L R Ls Rs LFE
    Sampling rate               : 48.0 kHz
    Frame rate                  : 93.750 FPS (512 SPF)
    Bit depth                   : 24 bits
    Compression mode            : Lossy
    Stream size                 : 1.05 GiB (5%)
    Title                       : Español Latino Core DTS [CinemaniaHDD]
    Language                    : Spanish
    Default                     : No
    Forced                      : No

    Menu
    00:00:00.000                : Chapter 01
    00:07:41.208                : Chapter 02
    00:18:08.333                : Chapter 03
    00:25:15.083                : Chapter 04
    00:32:17.125                : Chapter 05
    00:43:22.416                : Chapter 06
    00:51:18.666                : Chapter 07
    01:00:43.541                : Chapter 08
    01:09:17.833                : Chapter 09
    01:17:14.208                : Chapter 10
    01:25:50.875                : Chapter 11
    01:33:59.208                : Chapter 12

  • Peso: 20.6 GiB

Sinopsis

Descargar Sin Señas Particulares (2020) REMUX 1080p Latino. Magdalena, una madre en busca de su hijo desaparecido, conoce a Miguel, recientemente deportado de Estados Unidos y que busca a su madre. Juntos, se abren paso a través de los desolados e implacables paisajes llenos de milicias al sur de la frontera.

Nota: Disponible Solo Para VIP!!!

Ficha técnica

  • Titulo original: Sin Señas Particulares
  • Fecha de lanzamiento: 27-11-2020 (Mexico, Spain)
  • Director: Fernanda Valadez
  • Género: Drama, Remux

Video trailer de la película

Enlaces de descarga

Rip de Bluray

Descargar Sin Señas Particulares (2020) REMUX 1080p Latino


Aportes de DPeliculasHDmega la pass es:dpeliculashdmega.org Aportes de CinemaniaHD la pass es:cinemaniahdd.com
Guardado en : Drama , Remux

Películas relacionadas

descargar Sin Señas Particulares (2020) REMUX 1080p Latino Full 1080p 1080p gratis, Sin Señas Particulares (2020) REMUX 1080p Latino Full 1080p mega 1 link, Sin Señas Particulares (2020) REMUX 1080p Latino Full 1080p pelicula completa, descargar Sin Señas Particulares (2020) REMUX 1080p Latino Full 1080p gratis en mega.

Sin Señas Particulares (2020) REMUX 1080p Latino pelicula full hd, Sin Señas Particulares (2020) REMUX 1080p Latino mega latino, Sin Señas Particulares (2020) REMUX 1080p Latino 4k latino, Sin Señas Particulares (2020) REMUX 1080p Latino pelicula completa, Sin Señas Particulares (2020) REMUX 1080p Latino descargar gratis, descargar Sin Señas Particulares (2020) REMUX 1080p Latino pelicula latino, Sin Señas Particulares (2020) REMUX 1080p Latino 1 link mega, Sin Señas Particulares (2020) REMUX 1080p Latino 1 link google drive, Sin Señas Particulares (2020) REMUX 1080p Latino hd 1080p latino.
Comentarios 0