×

¿Problemas para descargar con Mozilla, EDGE? Deshabilita la opción "Abrir vinculos en una pestaña nueva" tal como lo muestra ésta imagen.

Sin Piedad (2019) PLACEBO Full HD 1080p Latino

350 vistas

Información de Sin Piedad (2019) PLACEBO Full HD 1080p Latino

Datos de la película

  • Calidad: Full 1080p
  • Audio: Español Latino AC3 2.0 WEB-DL - Ingles DTS 5.1 BLURAY
  • Subtitulos: Español Latino SRT- FORZADOS SRT
  • Resolución: 1920x1080p
  • Formato: MKV
  • Codec: H.264
  • Encoder: Melkor
  • Mediainfo: Clic para Mostrar Datos Ver
  • Sin Piedad (2019) PLACEBO 1080p Latino.mkv
    Format                      : Matroska
    Format version              : Version 4
    File size                   : 4.12 GiB
    Duration                    : 1 h 39 min
    Overall bit rate            : 5 912 kb/s
    Movie name                  : The Kid (2019) CinemaniaHDD.Net
    Encoded date                : UTC 2022-07-28 02:40:35
    Writing application         : mkvmerge v56.1.0 ('My Friend') 64-bit
    Writing library             : libebml v1.4.2 + libmatroska v1.6.4
    Attachments                 : CINEMANIAHD.png

    Video
    ID                          : 1
    Format                      : AVC
    Format/Info                 : Advanced Video Codec
    Format profile              : High@L4.1
    Format settings             : CABAC / 4 Ref Frames
    Format settings, CABAC      : Yes
    Format settings, Reference  : 4 frames
    Codec ID                    : V_MPEG4/ISO/AVC
    Duration                    : 1 h 39 min
    Bit rate                    : 4 144 kb/s
    Width                       : 1 920 pixels
    Height                      : 1 080 pixels
    Display aspect ratio        : 16:9
    Frame rate mode             : Constant
    Frame rate                  : 23.976 (24000/1001) FPS
    Color space                 : YUV
    Chroma subsampling          : 4:2:0
    Bit depth                   : 8 bits
    Scan type                   : Progressive
    Bits/(Pixel*Frame)          : 0.083
    Stream size                 : 2.89 GiB (70%)
    Title                       : Full HD1080p [CinemaniaHDD]
    Writing library             : x264 core 163 r3059 b684ebe0
    Encoding settings           : cabac=1 / ref=4 / deblock=1:0:0 / analyse=0x3:0x133 / me=tesa / subme=11 / psy=1 / psy_rd=1.00:0.00 / mixed_ref=1 / me_range=24 / chroma_me=1 / trellis=2 / 8x8dct=1 / cqm=0 / deadzone=21,11 / fast_pskip=0 / chroma_qp_offset=-2 / threads=24 / lookahead_threads=6 / sliced_threads=0 / nr=0 / decimate=1 / interlaced=0 / bluray_compat=0 / constrained_intra=0 / bframes=16 / b_pyramid=2 / b_adapt=2 / b_bias=0 / direct=3 / weightb=1 / open_gop=0 / weightp=2 / keyint=240 / keyint_min=24 / scenecut=40 / intra_refresh=0 / rc_lookahead=60 / rc=crf / mbtree=1 / crf=19.0 / qcomp=0.60 / qpmin=0 / qpmax=69 / qpstep=4 / vbv_maxrate=62500 / vbv_bufsize=78125 / crf_max=0.0 / nal_hrd=none / filler=0 / ip_ratio=1.40 / aq=1:1.00
    Default                     : Yes
    Forced                      : Yes
    Color range                 : Limited
    Color primaries             : BT.709
    Transfer characteristics    : BT.709
    Matrix coefficients         : BT.709

    Audio #1
    ID                          : 2
    Format                      : AC-3
    Format/Info                 : Audio Coding 3
    Commercial name             : Dolby Digital
    Codec ID                    : A_AC3
    Duration                    : 1 h 39 min
    Bit rate mode               : Constant
    Bit rate                    : 256 kb/s
    Channel(s)                  : 2 channels
    Channel layout              : L R
    Sampling rate               : 48.0 kHz
    Frame rate                  : 31.250 FPS (1536 SPF)
    Compression mode            : Lossy
    Stream size                 : 183 MiB (4%)
    Title                       : Español Latino [CinemaniaHDD]
    Language                    : Spanish
    Service kind                : Complete Main
    Default                     : Yes
    Forced                      : Yes

    Audio #2
    ID                          : 3
    Format                      : DTS
    Format/Info                 : Digital Theater Systems
    Codec ID                    : A_DTS
    Duration                    : 1 h 39 min
    Bit rate mode               : Constant
    Bit rate                    : 1 509 kb/s
    Channel(s)                  : 6 channels
    Channel layout              : C L R Ls Rs LFE
    Sampling rate               : 48.0 kHz
    Frame rate                  : 93.750 FPS (512 SPF)
    Bit depth                   : 24 bits
    Compression mode            : Lossy
    Stream size                 : 1.05 GiB (26%)
    Title                       : Ingles [CinemaniaHDD]
    Language                    : English
    Default                     : No
    Forced                      : No

    Text #1
    ID                          : 4
    Format                      : UTF-8
    Codec ID                    : S_TEXT/UTF8
    Codec ID/Info               : UTF-8 Plain Text
    Duration                    : 1 h 10 min
    Bit rate                    : 0 b/s
    Count of elements           : 5
    Stream size                 : 119 Bytes (0%)
    Title                       : Forzados-SRT [CinemaniaHDD]
    Language                    : Spanish
    Default                     : Yes
    Forced                      : Yes

    Text #2
    ID                          : 5
    Format                      : UTF-8
    Codec ID                    : S_TEXT/UTF8
    Codec ID/Info               : UTF-8 Plain Text
    Duration                    : 1 h 38 min
    Bit rate                    : 43 b/s
    Count of elements           : 993
    Stream size                 : 31.6 KiB (0%)
    Title                       : Español-SRT [CinemaniaHDD]
    Language                    : Spanish
    Default                     : No
    Forced                      : No

    Text #3
    ID                          : 6
    Format                      : UTF-8
    Codec ID                    : S_TEXT/UTF8
    Codec ID/Info               : UTF-8 Plain Text
    Duration                    : 1 h 36 min
    Bit rate                    : 46 b/s
    Count of elements           : 992
    Stream size                 : 33.1 KiB (0%)
    Title                       : Ingles [CinemaniaHDD]
    Language                    : English
    Default                     : No
    Forced                      : No

    Menu
    00:00:00.000                : Chapter 1
    00:07:40.627                : Chapter 2
    00:16:10.344                : Chapter 3
    00:24:21.293                : Chapter 4
    00:31:27.010                : Chapter 5
    00:40:03.109                : Chapter 6
    00:48:02.880                : Chapter 7
    00:56:48.071                : Chapter 8
    01:04:40.001                : Chapter 9
    01:12:02.318                : Chapter 10
    01:20:14.935                : Chapter 11
    01:27:23.822                : Chapter 12

  • Peso: 4.12 GiB

Sinopsis

Descargar Sin Piedad (2019) PLACEBO Full HD 1080p Latino. Un muchacho está viviendo los peores momentos de su vida: su tío ha asesinado a su padre y se ha llevado a su hermana para que ejerza la prostitución. El joven tiene que hacer algo frente a esta situación y decide pedir ayuda a su héroe: Billy El Niño. Intenta que el vaquero vengue a su padre y salve a su hermana… sin ningún resultado. Es entonces cuando aparece el sheriff Pat Garrett asombrando al chico con lo que consigue.

Ficha técnica

Video trailer de la película

Enlaces de descarga

Rip de Bluray

Descargar Sin Piedad (2019) PLACEBO Full HD 1080p Latino




Aportes de DPeliculasHDmega la pass es:dpeliculashdmega.org Aportes de CinemaniaHD la pass es:cinemaniahdd.com

Películas relacionadas

Sin Piedad (2019) PLACEBO Full HD 1080p Latino pelicula full hd, Sin Piedad (2019) PLACEBO Full HD 1080p Latino mega latino, Sin Piedad (2019) PLACEBO Full HD 1080p Latino 4k latino, Sin Piedad (2019) PLACEBO Full HD 1080p Latino pelicula completa, Sin Piedad (2019) PLACEBO Full HD 1080p Latino descargar gratis, descargar Sin Piedad (2019) PLACEBO Full HD 1080p Latino pelicula latino, Sin Piedad (2019) PLACEBO Full HD 1080p Latino 1 link mega, Sin Piedad (2019) PLACEBO Full HD 1080p Latino 1 link google drive, Sin Piedad (2019) PLACEBO Full HD 1080p Latino hd 1080p latino.
Comentarios 0