×

¿Problemas para descargar con Mozilla, EDGE? Deshabilita la opción "Abrir vinculos en una pestaña nueva" tal como lo muestra ésta imagen.

Sin novedad en el frente (2022) PLACEBO Full HD 1080p Latino

120 vistas

Información de Sin novedad en el frente (2022) PLACEBO Full HD 1080p Latino

Datos de la película

  • Calidad: Full 1080p
  • Audio: Se especifica abajo de la Sinopsis
  • Subtitulos: Español Latino PGS - Ingles PGS
  • Resolución: 1920x1080p
  • Formato: MKV
  • Codec: H.264
  • Encoder: Melkor
  • Mediainfo: Clic para Mostrar Datos Ver
  • Sin Novedad En EL Frente (2022) PLACEBO 1080p Latino.mkv
    Format                      : Matroska
    Format version              : Version 4
    File size                   : 8.52 GiB
    Duration                    : 2 h 26 min
    Overall bit rate            : 8 304 kb/s
    Movie name                  : All Quiet on the Western Front (2022) CinemaniaHDD.Net
    Encoded date                : UTC 2023-03-23 05:44:17
    Writing application         : mkvmerge v56.1.0 ('My Friend') 64-bit
    Writing library             : libebml v1.4.2 + libmatroska v1.6.4
    Attachments                 : CINEMANIAHD.png

    Video
    ID                          : 1
    Format                      : AVC
    Format/Info                 : Advanced Video Codec
    Format profile              : High@L4.1
    Format settings             : CABAC / 4 Ref Frames
    Format settings, CABAC      : Yes
    Format settings, Reference  : 4 frames
    Codec ID                    : V_MPEG4/ISO/AVC
    Duration                    : 2 h 26 min
    Bit rate                    : 7 199 kb/s
    Width                       : 1 920 pixels
    Height                      : 1 080 pixels
    Display aspect ratio        : 16:9
    Frame rate mode             : Constant
    Frame rate                  : 24.000 FPS
    Color space                 : YUV
    Chroma subsampling          : 4:2:0
    Bit depth                   : 8 bits
    Scan type                   : Progressive
    Bits/(Pixel*Frame)          : 0.145
    Stream size                 : 7.39 GiB (87%)
    Title                       : Full HD1080p [CinemaniaHDD]
    Writing library             : x264 core 163 r3059 b684ebe0
    Encoding settings           : cabac=1 / ref=4 / deblock=1:-1:-1 / analyse=0x3:0x133 / me=tesa / subme=11 / psy=1 / psy_rd=1.00:0.15 / mixed_ref=1 / me_range=24 / chroma_me=1 / trellis=2 / 8x8dct=1 / cqm=0 / deadzone=21,11 / fast_pskip=0 / chroma_qp_offset=-3 / threads=24 / lookahead_threads=6 / sliced_threads=0 / nr=0 / decimate=1 / interlaced=0 / bluray_compat=0 / constrained_intra=0 / bframes=16 / b_pyramid=2 / b_adapt=2 / b_bias=0 / direct=3 / weightb=1 / open_gop=0 / weightp=2 / keyint=240 / keyint_min=24 / scenecut=40 / intra_refresh=0 / rc_lookahead=60 / rc=crf / mbtree=1 / crf=19.0 / qcomp=0.60 / qpmin=0 / qpmax=69 / qpstep=4 / vbv_maxrate=62500 / vbv_bufsize=78125 / crf_max=0.0 / nal_hrd=none / filler=0 / ip_ratio=1.40 / aq=1:1.00
    Default                     : Yes
    Forced                      : Yes
    Color range                 : Limited
    Color primaries             : BT.709
    Transfer characteristics    : BT.709
    Matrix coefficients         : BT.709

    Audio #1
    ID                          : 2
    ID in the original source m : 4360 (0x1108)
    Format                      : AC-3
    Format/Info                 : Audio Coding 3
    Commercial name             : Dolby Digital
    Codec ID                    : A_AC3
    Duration                    : 2 h 26 min
    Bit rate mode               : Constant
    Bit rate                    : 448 kb/s
    Channel(s)                  : 6 channels
    Channel layout              : L R C LFE Ls Rs
    Sampling rate               : 48.0 kHz
    Frame rate                  : 31.250 FPS (1536 SPF)
    Compression mode            : Lossy
    Stream size                 : 471 MiB (5%)
    Title                       : Español Latino [CinemaniaHDD]
    Language                    : Spanish
    Service kind                : Complete Main
    Default                     : Yes
    Forced                      : Yes
    Original source medium      : Blu-ray

    Audio #2
    ID                          : 3
    ID in the original source m : 4352 (0x1100)
    Format                      : AC-3
    Format/Info                 : Audio Coding 3
    Commercial name             : Dolby Digital
    Format settings             : Dolby Surround EX
    Codec ID                    : A_AC3
    Duration                    : 2 h 26 min
    Bit rate mode               : Constant
    Bit rate                    : 640 kb/s
    Channel(s)                  : 6 channels
    Channel layout              : L R C LFE Ls Rs
    Sampling rate               : 48.0 kHz
    Frame rate                  : 31.250 FPS (1536 SPF)
    Compression mode            : Lossy
    Stream size                 : 673 MiB (8%)
    Title                       : Aleman [CinemaniaHDD]
    Language                    : German
    Service kind                : Complete Main
    Default                     : No
    Forced                      : No
    Original source medium      : Blu-ray

    Text #1
    ID                          : 4
    ID in the original source m : 4627 (0x1213)
    Format                      : PGS
    Muxing mode                 : zlib
    Codec ID                    : S_HDMV/PGS
    Codec ID/Info               : Picture based subtitle format used on BDs/HD-DVDs
    Duration                    : 2 h 21 min
    Bit rate                    : 1 136 b/s
    Count of elements           : 168
    Stream size                 : 1.15 MiB (0%)
    Title                       : Forzados-PGS [CinemaniaHDD]
    Language                    : Spanish
    Default                     : No
    Forced                      : No
    Original source medium      : Blu-ray

    Text #2
    ID                          : 5
    ID in the original source m : 4616 (0x1208)
    Format                      : PGS
    Muxing mode                 : zlib
    Codec ID                    : S_HDMV/PGS
    Codec ID/Info               : Picture based subtitle format used on BDs/HD-DVDs
    Duration                    : 2 h 23 min
    Bit rate                    : 13.9 kb/s
    Count of elements           : 2018
    Stream size                 : 14.3 MiB (0%)
    Title                       : Español-PGS [CinemaniaHDD]
    Language                    : Spanish
    Default                     : No
    Forced                      : No
    Original source medium      : Blu-ray

    Text #3
    ID                          : 6
    ID in the original source m : 4608 (0x1200)
    Format                      : PGS
    Muxing mode                 : zlib
    Codec ID                    : S_HDMV/PGS
    Codec ID/Info               : Picture based subtitle format used on BDs/HD-DVDs
    Duration                    : 2 h 13 min
    Bit rate                    : 17.3 kb/s
    Count of elements           : 2050
    Stream size                 : 16.5 MiB (0%)
    Title                       : Aleman-PGS [CinemaniaHDD]
    Language                    : German
    Default                     : No
    Forced                      : No
    Original source medium      : Blu-ray

    Text #4
    ID                          : 7
    Format                      : UTF-8
    Codec ID                    : S_TEXT/UTF8
    Codec ID/Info               : UTF-8 Plain Text
    Duration                    : 2 h 21 min
    Bit rate                    : 1 b/s
    Count of elements           : 84
    Stream size                 : 2.04 KiB (0%)
    Title                       : Forzados-SRT [CinemaniaHDD]
    Language                    : Spanish
    Default                     : Yes
    Forced                      : Yes

    Text #5
    ID                          : 8
    Format                      : UTF-8
    Codec ID                    : S_TEXT/UTF8
    Codec ID/Info               : UTF-8 Plain Text
    Duration                    : 2 h 23 min
    Bit rate                    : 24 b/s
    Count of elements           : 1009
    Stream size                 : 26.2 KiB (0%)
    Title                       : Español-SRT [CinemaniaHDD]
    Language                    : Spanish
    Default                     : No
    Forced                      : No

    Menu
    00:00:00.000                : Chapter 01
    00:11:45.333                : Chapter 02
    00:24:04.541                : Chapter 03
    00:36:28.750                : Chapter 04
    00:49:49.916                : Chapter 05
    01:00:41.541                : Chapter 06
    01:07:10.166                : Chapter 07
    01:21:23.375                : Chapter 08
    01:36:09.416                : Chapter 09
    01:47:24.500                : Chapter 10
    02:00:31.916                : Chapter 11
    02:14:15.333                : Chapter 12

  • Peso: 8.52 GiB

Sinopsis

Descargar Sin novedad en el frente (2022) PLACEBO Full HD 1080p Latino. Paul Baumer y sus amigos Albert y Muller, incitados por sueños románticos de heroísmo, se alistan voluntariamente en el ejército alemán. Llenos de emoción y fervor patriótico, los muchachos marchan con entusiasmo hacia una guerra en la que creen. Pero una vez en el frente occidental, descubren el horror destructor del alma de la Primera Guerra Mundial.

Español Latino AC3 5.1 BD – Aleman AC3 5.1 Bluray

Ficha técnica

Video trailer de la película

Enlaces de descarga

Rip de Bluray

Descargar Sin novedad en el frente (2022) PLACEBO Full HD 1080p Latino




Aportes de DPeliculasHDmega la pass es:dpeliculashdmega.org Aportes de CinemaniaHD la pass es:cinemaniahdd.com

Películas relacionadas

descargar Sin novedad en el frente (2022) PLACEBO Full HD 1080p Latino Full 1080p 1080p gratis, Sin novedad en el frente (2022) PLACEBO Full HD 1080p Latino Full 1080p mega 1 link, Sin novedad en el frente (2022) PLACEBO Full HD 1080p Latino Full 1080p pelicula completa, descargar Sin novedad en el frente (2022) PLACEBO Full HD 1080p Latino Full 1080p gratis en mega.

Sin novedad en el frente (2022) PLACEBO Full HD 1080p Latino pelicula full hd, Sin novedad en el frente (2022) PLACEBO Full HD 1080p Latino mega latino, Sin novedad en el frente (2022) PLACEBO Full HD 1080p Latino 4k latino, Sin novedad en el frente (2022) PLACEBO Full HD 1080p Latino pelicula completa, Sin novedad en el frente (2022) PLACEBO Full HD 1080p Latino descargar gratis, descargar Sin novedad en el frente (2022) PLACEBO Full HD 1080p Latino pelicula latino, Sin novedad en el frente (2022) PLACEBO Full HD 1080p Latino 1 link mega, Sin novedad en el frente (2022) PLACEBO Full HD 1080p Latino 1 link google drive, Sin novedad en el frente (2022) PLACEBO Full HD 1080p Latino hd 1080p latino.
Comentarios 0