Sin miedo a la muerte (1976) Full 1080p Latino

588 vistas
1 estrella2 estrellas3 estrellas4 estrellas5 estrellas (Ninguna valoración todavía)
Cargando…

Información de Sin miedo a la muerte (1976) Full 1080p Latino

Datos de la película

  • Calidad: Full 1080p
  • Audio: Español Latino AC3 1.0 BLURAY - Ingles AC3 5.1 BLURAY
  • Subtitulos: Español Latino PGS - Ingles PGS
  • Resolución: 1920x1080p
  • Formato: MKV
  • Codec: H.264
  • Encoder: Dracarys
  • Mediainfo: Clic para Mostrar Datos Ver
  • Format                                   : Matroska
    Format version                           : Version 4 / Version 2
    File size                                : 5.94 GiB
    Duration                                 : 1 h 36 min
    Overall bit rate                         : 8 797 kb/s
    Movie name                               : CinemaniaHDD.net
    Encoded date                             : UTC 2018-11-27 18:15:48 / UTC 2018-11-25T04:17:04Z
    Writing application                      : mkvmerge v15.0.0 ('Duel with the Devil') 64-bit
    Writing library                          : libebml v1.3.5 + libmatroska v1.4.5 / Lavf57.7.2

    Video
    ID                                       : 1
    Format                                   : AVC
    Format/Info                              : Advanced Video Codec
    Format profile                           : [email protected]
    Format settings                          : CABAC / 4 Ref Frames
    Format settings, CABAC                   : Yes
    Format settings, RefFrames               : 4 frames
    Codec ID                                 : V_MPEG4/ISO/AVC
    Duration                                 : 1 h 36 min
    Bit rate                                 : 7 790 kb/s
    Width                                    : 1 920 pixels
    Height                                   : 1 080 pixels
    Display aspect ratio                     : 16:9
    Frame rate mode                          : Constant
    Frame rate                               : 23.976 (24000/1001) FPS
    Color space                              : YUV
    Chroma subsampling                       : 4:2:0
    Bit depth                                : 8 bits
    Scan type                                : Progressive
    Bits/(Pixel*Frame)                       : 0.157
    Stream size                              : 5.26 GiB (89%)
    Writing library                          : x264 core 148 r2708 86b7198
    Encoding settings                        : cabac=1 / ref=4 / deblock=1:0:0 / analyse=0x3:0x133 / me=esa / subme=10 / psy=1 / psy_rd=1.00:0.00 / mixed_ref=1 / me_range=24 / chroma_me=1 / trellis=2 / 8x8dct=1 / cqm=0 / deadzone=21,11 / fast_pskip=1 / chroma_qp_offset=-2 / threads=34 / lookahead_threads=5 / sliced_threads=0 / nr=0 / decimate=1 / interlaced=0 / bluray_compat=0 / constrained_intra=0 / bframes=8 / b_pyramid=2 / b_adapt=2 / b_bias=0 / direct=3 / weightb=1 / open_gop=0 / weightp=2 / keyint=240 / keyint_min=24 / scenecut=40 / intra_refresh=0 / rc_lookahead=60 / rc=crf / mbtree=1 / crf=20.0 / qcomp=0.60 / qpmin=0 / qpmax=69 / qpstep=4 / vbv_maxrate=62500 / vbv_bufsize=78125 / crf_max=0.0 / nal_hrd=none / filler=0 / ip_ratio=1.40 / aq=1:1.00
    Language                                 : English
    Default                                  : Yes
    Forced                                   : No
    Color range                              : Limited
    Color primaries                          : BT.709
    Transfer characteristics                 : BT.709
    Matrix coefficients                      : BT.709
    Statistics Tags Issue                    : mkvmerge v15.0.0 ('Duel with the Devil') 64-bit 2018-11-27 18:15:48 / mkvmerge v15.0.0 ('Duel with the Devil') 64-bit 2018-11-27 18:15:48 / UTC 2018-11-25T04:17:04Z
    FromStats_BitRate                        : 7937090
    FromStats_Duration                       : 01:36:36.082000000
    FromStats_FrameCount                     : 138967
    FromStats_StreamSize                     : 5750503423

    Audio #1
    ID                                       : 2
    Format                                   : AC-3
    Format/Info                              : Audio Coding 3
    Format settings, Endianness              : Big
    Codec ID                                 : A_AC3
    Duration                                 : 1 h 36 min
    Bit rate mode                            : Constant
    Bit rate                                 : 192 kb/s
    Channel(s)                               : 1 channel
    Channel positions                        : Front: C
    Sampling rate                            : 48.0 kHz
    Frame rate                               : 31.250 FPS (1536 SPF)
    Bit depth                                : 16 bits
    Compression mode                         : Lossy
    Stream size                              : 133 MiB (2%)
    Language                                 : Spanish
    Service kind                             : Complete Main
    Default                                  : No
    Forced                                   : No
    Statistics Tags Issue                    : mkvmerge v15.0.0 ('Duel with the Devil') 64-bit 2018-11-27 18:15:48 / mkvmerge v15.0.0 ('Duel with the Devil') 64-bit 2018-11-27 18:15:48 / UTC 2018-11-25T04:17:04Z
    FromStats_BitRate                        : 192000
    FromStats_Duration                       : 01:36:36.096000000
    FromStats_FrameCount                     : 181128
    FromStats_StreamSize                     : 139106304

    Audio #2
    ID                                       : 3
    Format                                   : AC-3
    Format/Info                              : Audio Coding 3
    Format settings, Endianness              : Big
    Codec ID                                 : A_AC3
    Duration                                 : 1 h 36 min
    Bit rate mode                            : Constant
    Bit rate                                 : 640 kb/s
    Channel(s)                               : 6 channels
    Channel positions                        : Front: L C R, Side: L R, LFE
    Sampling rate                            : 48.0 kHz
    Frame rate                               : 31.250 FPS (1536 SPF)
    Bit depth                                : 16 bits
    Compression mode                         : Lossy
    Stream size                              : 442 MiB (7%)
    Language                                 : English
    Service kind                             : Complete Main
    Default                                  : Yes
    Forced                                   : No
    Statistics Tags Issue                    : mkvmerge v15.0.0 ('Duel with the Devil') 64-bit 2018-11-27 18:15:48 / mkvmerge v15.0.0 ('Duel with the Devil') 64-bit 2018-11-27 18:15:48 / UTC 2018-11-25T04:17:04Z
    FromStats_BitRate                        : 640000
    FromStats_Duration                       : 01:36:36.096000000
    FromStats_FrameCount                     : 181128
    FromStats_StreamSize                     : 463687680

    Text #1
    ID                                       : 4
    Format                                   : PGS
    Muxing mode                              : zlib
    Codec ID                                 : S_HDMV/PGS
    Codec ID/Info                            : Picture based subtitle format used on BDs/HD-DVDs
    Language                                 : English
    Default                                  : No
    Forced                                   : No
    Statistics Tags Issue                    : mkvmerge v15.0.0 ('Duel with the Devil') 64-bit 2018-11-27 18:15:48 / mkvmerge v15.0.0 ('Duel with the Devil') 64-bit 2018-11-27 18:15:48 / UTC 2018-11-25T04:17:04Z
    FromStats_BitRate                        : 32062
    FromStats_Duration                       : 01:36:07.845000000
    FromStats_FrameCount                     : 2028
    FromStats_StreamSize                     : 23116163

    Text #2
    ID                                       : 5
    Format                                   : PGS
    Muxing mode                              : zlib
    Codec ID                                 : S_HDMV/PGS
    Codec ID/Info                            : Picture based subtitle format used on BDs/HD-DVDs
    Language                                 : Spanish
    Default                                  : No
    Forced                                   : No
    Statistics Tags Issue                    : mkvmerge v15.0.0 ('Duel with the Devil') 64-bit 2018-11-27 18:15:48 / mkvmerge v15.0.0 ('Duel with the Devil') 64-bit 2018-11-27 18:15:48 / UTC 2018-11-25T04:17:04Z
    FromStats_BitRate                        : 26522
    FromStats_Duration                       : 01:36:07.845000000
    FromStats_FrameCount                     : 1970
    FromStats_StreamSize                     : 19122073

    Menu
    00:00:00.000                             : :Chapter 1
    00:04:07.581                             : :Chapter 2
    00:05:51.184                             : :Chapter 3
    00:07:46.633                             : :Chapter 4
    00:12:28.748                             : :Chapter 5
    00:14:48.388                             : :Chapter 6
    00:16:43.169                             : :Chapter 7
    00:20:07.373                             : :Chapter 8
    00:28:03.515                             : :Chapter 9
    00:31:31.556                             : :Chapter 10
    00:32:30.115                             : :Chapter 11
    00:34:24.729                             : :Chapter 12
    00:36:03.161                             : :Chapter 13
    00:39:20.692                             : :Chapter 14
    00:47:12.163                             : :Chapter 15
    00:48:18.062                             : :Chapter 16
    00:54:19.423                             : :Chapter 17
    00:56:06.029                             : :Chapter 18
    01:01:05.662                             : :Chapter 19
    01:05:29.592                             : :Chapter 20
    01:11:08.097                             : :Chapter 21
    01:13:32.575                             : :Chapter 22
    01:15:21.517                             : :Chapter 23
    01:18:20.029                             : :Chapter 24
    01:20:31.660                             : :Chapter 25
    01:24:12.881                             : :Chapter 26
    01:28:40.315                             : :Chapter 27
    01:31:37.492                             : :Chapter 28
    01:33:10.585                             : :Chapter 29
    01:34:37.005                             : :Chapter 30

     

  • Peso: 5.94 GiB

Sinopsis

Tercera entrega de las andanzas del controvertido y duro policía de San Francisco, Harry Callahan, de nuevo interpretado por Clint Eastwood. Esta vez, se enfrenta a un grupo de sádicos terroristas que se hacen llamar ‘Acción Revolucionaria del Pueblo’ y que tratan de dominar la ciudad. Callahan y su nueva ayudante, Kate Moore, deberán rescatar al alcalde, a quien los terroristas han secuestrado.

Ficha técnica

Video trailer de la película

Enlaces de descarga

Rip de Bluray

Descargar Sin miedo a la muerte (1976) Full 1080p Latino




Aportes de DPeliculasHDmega la pass es:dpeliculashdmega.org Aportes de CinemaniaHD la pass es:cinemaniahdd.com

Películas relacionadas

  • Musa (2017) 1080p Latino

    2017
    Musa (2017) 1080p Latino

    0.0 1h 47m 2017

    Samuel Salomon, profesor de literatura, no pisa la universidad desde la trágica e inesperada muerte...

    Director: Maéva Buisse

    Género: HD 1080p

    Actores: Yennis Cheung

  • Kim Possible (2019) WEB-DL 1080p Latino

    2019
    Kim Possible (2019) WEB-DL 1080p Latino

    0.0 1h 26m 2019

    Kim Possible (Sadie Stanley) es una chica normal y corriente que se dedica a salvar al mundo en su tiempo...

    Director: Zach Lipovsky

    Género: Acción

    Actores: Todd Stashwick

  • Triple Amenaza (2019) AMZN 1080p Subtitulado

    2019
    Triple Amenaza (2019) AMZN 1080p Subtitulado

    0.0 1h 36m 2019

    Se ha puesto precio a la cabeza de la hija de un multimillonario que tiene la intención de acabar con...

    Director: Jesse V. Johnson

    Género: Acción

    Actores: Zhang Guangbei

  • El hotel gran Budapest (2014) Full HD1080p Latino

    2014
    El hotel gran Budapest (2014) Full HD1080p Latino

    0.0 1h 39m 2014

    El Sr. Gustave H., un legendario conserje de un famoso hotel europeo de entreguerras, entabla amistad...

    Director: Wes Anderson

    Género: Comedia

    Actores: Wolfram Nielacny

  • FBI (2018) Temporada 1 1080p WEB-DL Latino

    2018
    FBI (2018) Temporada 1 1080p WEB-DL Latino

    0.0 0h 43m 2018

    Serie de TV (2018-). Drama vertiginoso sobre el funcionamiento interno de la oficina de Nueva York del...

    Director: Dick Wolf

    Género: Crimen

    Actores: Zeeko Zaki

Comentarios 0