×

¿Problemas para descargar con Mozilla, EDGE? Deshabilita la opción "Abrir vinculos en una pestaña nueva" tal como lo muestra ésta imagen.

Sin City (2005) [EXTENDED UNRATED] REMUX 1080p Latino – CMHDD

162 vistas

Información de Sin City (2005) [EXTENDED UNRATED] REMUX 1080p Latino – CMHDD

Datos de la película

  • Calidad: Full 1080p
  • Audio: Español Latino AC3 5.1 BLURAY - Ingles DTS 5.1 BLURAY
  • Subtitulos: Español Latino PGS
  • Resolución: 19201080p
  • Formato: MKV
  • Codec: H.264
  • Encoder: Dracarys
  • Mediainfo: Clic para Mostrar Datos Ver
  • Format                      : Matroska
    Format version              : Version 4
    File size                   : 27.9 GiB
    Duration                    : 2 h 21 min
    Overall bit rate mode       : Variable
    Overall bit rate            : 28.1 Mb/s
    Movie name                  : Sin City (2005) [EXTENDED UNRATED] REMUX 1080p Latino - CMHDD
    Encoded date                : UTC 2023-10-23 04:28:54
    Writing application         : mkvmerge v47.0.0 ('Black Flag') 64-bit
    Writing library             : libebml v1.3.10 + libmatroska v1.5.2

    Video
    ID                          : 1
    ID in the original source m : 4113 (0x1011)
    Format                      : AVC
    Format/Info                 : Advanced Video Codec
    Format profile              : High@L4.1
    Format settings             : CABAC / 2 Ref Frames
    Format settings, CABAC      : Yes
    Format settings, Reference  : 2 frames
    Codec ID                    : V_MPEG4/ISO/AVC
    Duration                    : 2 h 21 min
    Bit rate mode               : Variable
    Bit rate                    : 21.9 Mb/s
    Width                       : 1 920 pixels
    Height                      : 1 080 pixels
    Display aspect ratio        : 16:9
    Frame rate mode             : Constant
    Frame rate                  : 23.976 (24000/1001) FPS
    Color space                 : YUV
    Chroma subsampling          : 4:2:0
    Bit depth                   : 8 bits
    Scan type                   : Progressive
    Bits/(Pixel*Frame)          : 0.441
    Stream size                 : 21.7 GiB (78%)
    Default                     : No
    Forced                      : No
    Original source medium      : Blu-ray

    Audio #1
    ID                          : 2
    ID in the original source m : 4352 (0x1100)
    Format                      : DTS XLL
    Format/Info                 : Digital Theater Systems
    Commercial name             : DTS-HD Master Audio
    Codec ID                    : A_DTS
    Duration                    : 2 h 21 min
    Bit rate mode               : Variable
    Bit rate                    : 4 255 kb/s
    Channel(s)                  : 6 channels
    Channel layout              : C L R Ls Rs LFE
    Sampling rate               : 48.0 kHz
    Frame rate                  : 93.750 FPS (512 SPF)
    Bit depth                   : 24 bits
    Compression mode            : Lossless
    Stream size                 : 4.21 GiB (15%)
    Language                    : English
    Default                     : No
    Forced                      : No
    Original source medium      : Blu-ray

    Audio #2
    ID                          : 3
    Format                      : E-AC-3
    Format/Info                 : Enhanced AC-3
    Commercial name             : Dolby Digital Plus
    Codec ID                    : A_EAC3
    Duration                    : 2 h 21 min
    Bit rate mode               : Constant
    Bit rate                    : 960 kb/s
    Channel(s)                  : 2 channels
    Channel layout              : L R
    Sampling rate               : 48.0 kHz
    Frame rate                  : 31.250 FPS (1536 SPF)
    Compression mode            : Lossy
    Stream size                 : 973 MiB (3%)
    Language                    : English
    Service kind                : Complete Main
    Default                     : No
    Forced                      : No

    Audio #3
    ID                          : 4
    Format                      : E-AC-3
    Format/Info                 : Enhanced AC-3
    Commercial name             : Dolby Digital Plus
    Codec ID                    : A_EAC3
    Duration                    : 2 h 21 min
    Bit rate mode               : Constant
    Bit rate                    : 960 kb/s
    Channel(s)                  : 6 channels
    Channel layout              : L R C LFE Ls Rs
    Sampling rate               : 48.0 kHz
    Frame rate                  : 31.250 FPS (1536 SPF)
    Compression mode            : Lossy
    Stream size                 : 973 MiB (3%)
    Language                    : Spanish
    Service kind                : Complete Main
    Default                     : Yes
    Forced                      : No

    Text #1
    ID                          : 5
    Format                      : UTF-8
    Codec ID                    : S_TEXT/UTF8
    Codec ID/Info               : UTF-8 Plain Text
    Duration                    : 2 h 13 min
    Bit rate                    : 0 b/s
    Frame rate                  : 0.001 FPS
    Count of elements           : 10
    Stream size                 : 245 Bytes (0%)
    Language                    : Spanish
    Default                     : Yes
    Forced                      : Yes

    Text #2
    ID                          : 6
    Format                      : UTF-8
    Codec ID                    : S_TEXT/UTF8
    Codec ID/Info               : UTF-8 Plain Text
    Duration                    : 2 h 17 min
    Bit rate                    : 69 b/s
    Frame rate                  : 0.212 FPS
    Count of elements           : 1745
    Stream size                 : 69.5 KiB (0%)
    Language                    : Spanish
    Default                     : No
    Forced                      : No

    Text #3
    ID                          : 7
    ID in the original source m : 4609 (0x1201)
    Format                      : PGS
    Muxing mode                 : zlib
    Codec ID                    : S_HDMV/PGS
    Codec ID/Info               : Picture based subtitle format used on BDs/HD-DVDs
    Duration                    : 2 h 17 min
    Bit rate                    : 36.9 kb/s
    Frame rate                  : 0.424 FPS
    Count of elements           : 3490
    Stream size                 : 36.2 MiB (0%)
    Language                    : Spanish
    Default                     : No
    Forced                      : No
    Original source medium      : Blu-ray

    Text #4
    ID                          : 8
    ID in the original source m : 4612 (0x1204)
    Format                      : PGS
    Muxing mode                 : zlib
    Codec ID                    : S_HDMV/PGS
    Codec ID/Info               : Picture based subtitle format used on BDs/HD-DVDs
    Duration                    : 2 h 13 min
    Bit rate                    : 172 b/s
    Frame rate                  : 0.003 FPS
    Count of elements           : 20
    Stream size                 : 168 KiB (0%)
    Language                    : Spanish
    Default                     : No
    Forced                      : No
    Original source medium      : Blu-ray

    Menu
    00:00:00.000                : en:(01)00:00:00:000
    00:47:26.802                : en:(02)00:47:26:802
    00:55:52.265                : en:(03)00:55:52:265
    01:36:49.678                : en:(04)01:36:49:678
    02:21:44.954                : en:(05)02:21:44:954

     

  • Peso: 27.9 GiB

Sinopsis

Bienvenidos a Sin City, ciudad de policías corruptos, atractivas damas y vigilantes desesperados. Algunos están buscando venganza, algunos redención, y otros, ambas cosas. Un universo de héroes inverosímiles que intentan hacer lo correcto. Sin City es una ciudad que vive entre la luz y la oscuridad, llena de personajes singulares. Está por ejemplo Marv (Mickey Rourke), un superviviente que busca vengar la muerte de su único amor. También está Dwight (Clive Owen), un investigador privado que intenta dejar sus problemas atrás. Después de que un policía sea asesinado, Dwight no parará ante nada para proteger a sus amigos. Finalmente, está la historia de Hartigan (Bruce Willis), el último policía honesto de Sin City, que va tras la pista de una joven en manos del sádico hijo de un senador… con resultados inesperados.

Ficha técnica

Video trailer de la película

Enlaces de descarga

Rip de Bluray

Descargar Sin City (2005) [EXTENDED UNRATED] REMUX 1080p Latino – CMHDD




Aportes de DPeliculasHDmega la pass es:dpeliculashdmega.org Aportes de CinemaniaHD la pass es:cinemaniahdd.com Aportes recientes:cinemaniahdd.net
Guardado en : Acción , Crimen , Suspenso

Películas relacionadas

  • Vanished Into the Night (2024) NF WEB-DL 1080p Latino

    Vanished Into the Night (2024) NF WEB-DL 1080p Latino

    2024
    Vanished Into the Night (2024) NF WEB-DL 1080p Latino

    1h 33m 2024

    Descargar Vanished Into the Night (2024) NF WEB-DL 1080p Latino. Un padre inmerso en un divorcio problemático...

    Director: Renato De Maria

    Género: Drama

    Actores: Riccardo Scamarcio

  • Inmaculada (2024) HD 1080p Latino

    Inmaculada (2024) HD 1080p Latino

    2024
    Inmaculada (2024) HD 1080p Latino

    1h 29m 2024

    Descargar Inmaculada (2024) HD 1080p Latino. Cecilia, una mujer de fe devota, recibe una calurosa bienvenida...

    Director: Valentina Scuro

    Género: HD 1080p

    Actores: Viviane Florentine Nicolai

  • Inmaculada (2024) PLACEBO Full HD 1080p Latino

    Inmaculada (2024) PLACEBO Full HD 1080p Latino

    2024
    Inmaculada (2024) PLACEBO Full HD 1080p Latino

    1h 29m 2024

    Descargar Inmaculada (2024) PLACEBO Full HD 1080p Latino. Cecilia, una mujer de fe devota, recibe una...

    Director: Valentina Scuro

    Género: FULL 1080p Plateadas

    Actores: Viviane Florentine Nicolai

  • Inmaculada (2024) REMUX 1080p Latino

    Inmaculada (2024) REMUX 1080p Latino

    2024
    Inmaculada (2024) REMUX 1080p Latino

    1h 29m 2024

    Descargar Inmaculada (2024) REMUX 1080p Latino. Cecilia, una mujer de fe devota, recibe una calurosa...

    Director: Valentina Scuro

    Género: Misterio

    Actores: Viviane Florentine Nicolai

descargar Sin City (2005) [EXTENDED UNRATED] REMUX 1080p Latino – CMHDD Full 1080p 1080p gratis, Sin City (2005) [EXTENDED UNRATED] REMUX 1080p Latino – CMHDD Full 1080p mega 1 link, Sin City (2005) [EXTENDED UNRATED] REMUX 1080p Latino – CMHDD Full 1080p pelicula completa, descargar Sin City (2005) [EXTENDED UNRATED] REMUX 1080p Latino – CMHDD Full 1080p gratis en mega.

Sin City (2005) [EXTENDED UNRATED] REMUX 1080p Latino – CMHDD pelicula full hd, Sin City (2005) [EXTENDED UNRATED] REMUX 1080p Latino – CMHDD mega latino, Sin City (2005) [EXTENDED UNRATED] REMUX 1080p Latino – CMHDD 4k latino, Sin City (2005) [EXTENDED UNRATED] REMUX 1080p Latino – CMHDD pelicula completa, Sin City (2005) [EXTENDED UNRATED] REMUX 1080p Latino – CMHDD descargar gratis, descargar Sin City (2005) [EXTENDED UNRATED] REMUX 1080p Latino – CMHDD pelicula latino, Sin City (2005) [EXTENDED UNRATED] REMUX 1080p Latino – CMHDD 1 link mega, Sin City (2005) [EXTENDED UNRATED] REMUX 1080p Latino – CMHDD 1 link google drive, Sin City (2005) [EXTENDED UNRATED] REMUX 1080p Latino – CMHDD hd 1080p latino.
Comentarios 0