×

¿Problemas para descargar con Mozilla, EDGE? Deshabilita la opción "Abrir vinculos en una pestaña nueva" tal como lo muestra ésta imagen.

Sin Aire (The Dive) (2023) AMZN WEB-DL 1080p Latino

74 vistas

Información de Sin Aire (The Dive) (2023) AMZN WEB-DL 1080p Latino

Datos de la película

  • Calidad: 1080p
  • Audio: Español Latino AC3 2.0 WEB-DL - Ingles AC3 5.1 WEB-DL
  • Subtitulos: Español Latino SRT- FORZADOS SRT
  • Resolución: 1920x1080
  • Formato: MKV
  • Codec: H.264
  • Encoder: cinemaniahdd
  • Mediainfo: Clic para Mostrar Datos Ver
  • Sin Aire (The Dive) (2023) AMZN WEB-DL 1080p Latino [CNMNHDD].mkv
    Format                      : Matroska
    Format version              : Version 4
    File size                   : 6.19 GiB
    Duration                    : 1 h 30 min
    Overall bit rate            : 9 737 kb/s
    Movie name                  : Sin Aire (The Dive) (2023) [1080p] - CinemaniaHDD.Net
    Encoded date                : UTC 2024-02-24 17:25:25
    Writing application         : mkvmerge v56.1.0 ('My Friend') 64-bit
    Writing library             : libebml v1.4.2 + libmatroska v1.6.4

    Video
    ID                          : 1
    Format                      : AVC
    Format/Info                 : Advanced Video Codec
    Format profile              : High@L4
    Format settings             : CABAC / 4 Ref Frames
    Format settings, CABAC      : Yes
    Format settings, Reference  : 4 frames
    Codec ID                    : V_MPEG4/ISO/AVC
    Duration                    : 1 h 30 min
    Bit rate mode               : Constant
    Bit rate                    : 8 486 kb/s
    Nominal bit rate            : 10 000 kb/s
    Width                       : 1 920 pixels
    Height                      : 800 pixels
    Display aspect ratio        : 2.40:1
    Frame rate mode             : Constant
    Frame rate                  : 23.976 (24000/1001) FPS
    Color space                 : YUV
    Chroma subsampling          : 4:2:0
    Bit depth                   : 8 bits
    Scan type                   : Progressive
    Bits/(Pixel*Frame)          : 0.230
    Stream size                 : 5.39 GiB (87%)
    Title                       : CinemaniaHDD
    Default                     : Yes
    Forced                      : No
    Color range                 : Limited
    Color primaries             : BT.709
    Transfer characteristics    : BT.709
    Matrix coefficients         : BT.709

    Audio #1
    ID                          : 2
    Format                      : AC-3
    Format/Info                 : Audio Coding 3
    Commercial name             : Dolby Digital
    Codec ID                    : A_AC3
    Duration                    : 1 h 30 min
    Bit rate mode               : Constant
    Bit rate                    : 384 kb/s
    Channel(s)                  : 2 channels
    Channel layout              : L R
    Sampling rate               : 48.0 kHz
    Frame rate                  : 31.250 FPS (1536 SPF)
    Compression mode            : Lossy
    Stream size                 : 250 MiB (4%)
    Title                       : Español Latino [CinemaniaHDD]
    Language                    : Spanish
    Service kind                : Complete Main
    Default                     : Yes
    Forced                      : No

    Audio #2
    ID                          : 3
    Format                      : E-AC-3
    Format/Info                 : Enhanced AC-3
    Commercial name             : Dolby Digital Plus
    Codec ID                    : A_EAC3
    Duration                    : 1 h 30 min
    Bit rate mode               : Constant
    Bit rate                    : 224 kb/s
    Channel(s)                  : 2 channels
    Channel layout              : L R
    Sampling rate               : 48.0 kHz
    Frame rate                  : 31.250 FPS (1536 SPF)
    Compression mode            : Lossy
    Stream size                 : 146 MiB (2%)
    Title                       : Español Latino / E-AC3 [CinemaniaHDD]
    Language                    : Spanish
    Service kind                : Complete Main
    Default                     : No
    Forced                      : No

    Audio #3
    ID                          : 4
    Format                      : E-AC-3
    Format/Info                 : Enhanced AC-3
    Commercial name             : Dolby Digital Plus
    Codec ID                    : A_EAC3
    Duration                    : 1 h 30 min
    Bit rate mode               : Constant
    Bit rate                    : 640 kb/s
    Channel(s)                  : 6 channels
    Channel layout              : L R C LFE Ls Rs
    Sampling rate               : 48.0 kHz
    Frame rate                  : 31.250 FPS (1536 SPF)
    Compression mode            : Lossy
    Stream size                 : 416 MiB (7%)
    Title                       : Inglés [CinemaniaHDD]
    Language                    : English
    Service kind                : Complete Main
    Default                     : No
    Forced                      : No

    Text #1
    ID                          : 5
    Format                      : UTF-8
    Codec ID                    : S_TEXT/UTF8
    Codec ID/Info               : UTF-8 Plain Text
    Duration                    : 46 min 16 s
    Bit rate                    : 0 b/s
    Count of elements           : 3
    Stream size                 : 92.0 Bytes (0%)
    Title                       : Forzados [CinemaniaHDD]
    Language                    : Spanish
    Default                     : Yes
    Forced                      : Yes

    Text #2
    ID                          : 6
    Format                      : UTF-8
    Codec ID                    : S_TEXT/UTF8
    Codec ID/Info               : UTF-8 Plain Text
    Duration                    : 1 h 21 min
    Bit rate                    : 23 b/s
    Count of elements           : 549
    Stream size                 : 13.9 KiB (0%)
    Title                       : Español Latino [CinemaniaHDD]
    Language                    : Spanish
    Default                     : No
    Forced                      : No

     

  • Peso: 6.19 GiB

Sinopsis

Dos hermanas van a bucear a un hermoso y remoto lugar. Una de las hermanas es golpeada por una roca, dejándola atrapada 28 metros más abajo. Con niveles peligrosamente bajos de oxígeno y temperaturas frías, depende de su hermana luchar por su vida.

Ficha técnica

Video trailer de la película

Enlaces de descarga

Rip de Bluray

Descargar Sin Aire (The Dive) (2023) AMZN WEB-DL 1080p Latino




Aportes de DPeliculasHDmega la pass es:dpeliculashdmega.org Aportes de CinemaniaHD la pass es:cinemaniahdd.com Aportes recientes:cinemaniahdd.net
Guardado en : Suspenso

Películas relacionadas

  • Godzilla vs. Kong (2021) REMUX 4K HDR Latino – CMHDD

    Godzilla vs. Kong (2021) REMUX 4K HDR Latino – CMHDD

    2021
    Godzilla vs. Kong (2021) REMUX 4K HDR Latino – CMHDD

    1h 54m 2021

    Godzilla y Kong, dos de las fuerzas más poderosas de un planeta habitado por todo tipo de aterradoras...

    Director: Thomas Robinson Harper

    Género: Acción

    Actores: Victoria Liu

  • Aguas siniestras (2024) HD 1080p Latino

    Aguas siniestras (2024) HD 1080p Latino

    2024
    Aguas siniestras (2024) HD 1080p Latino

    1h 56m 2024

    Descargar Aguas siniestras (2024) HD 1080p Latino. Ray Waller, una estrella del béisbol obligada a retirarse...

    Director: Phil DeSanti

    Género: HD 1080p

    Actores: Wyatt Russell

  • Aguas siniestras (2024) PLACEBO Full HD 1080p Latino

    Aguas siniestras (2024) PLACEBO Full HD 1080p Latino

    2024
    Aguas siniestras (2024) PLACEBO Full HD 1080p Latino

    1h 56m 2024

    Descargar Aguas siniestras (2024) PLACEBO Full HD 1080p Latino. Ray Waller, una estrella del béisbol...

    Director: Phil DeSanti

    Género: FULL 1080p Plateadas

    Actores: Wyatt Russell

  • Aguas siniestras (2024) REMUX 1080p Latino

    Aguas siniestras (2024) REMUX 1080p Latino

    2024
    Aguas siniestras (2024) REMUX 1080p Latino

    1h 56m 2024

    Descargar Aguas siniestras (2024) REMUX 1080p Latino. Ray Waller, una estrella del béisbol obligada...

    Director: Phil DeSanti

    Género: Remux

    Actores: Wyatt Russell

  • The Impossible (2012) WEB-DL 1080p Latino – CMHDD

    The Impossible (2012) WEB-DL 1080p Latino – CMHDD

    2012
    The Impossible (2012) WEB-DL 1080p Latino – CMHDD

    1h 47m 2012

    María, Henry y sus tres hijos comienzan sus vacaciones de invierno en Tailandia en busca de unos días...

    Director: J. A. Bayona

    Género: Aventura

    Actores: Zoe Popham

descargar Sin Aire (The Dive) (2023) AMZN WEB-DL 1080p Latino 1080p 1080p gratis, Sin Aire (The Dive) (2023) AMZN WEB-DL 1080p Latino 1080p mega 1 link, Sin Aire (The Dive) (2023) AMZN WEB-DL 1080p Latino 1080p pelicula completa, descargar Sin Aire (The Dive) (2023) AMZN WEB-DL 1080p Latino 1080p gratis en mega.

Sin Aire (The Dive) (2023) AMZN WEB-DL 1080p Latino pelicula full hd, Sin Aire (The Dive) (2023) AMZN WEB-DL 1080p Latino mega latino, Sin Aire (The Dive) (2023) AMZN WEB-DL 1080p Latino 4k latino, Sin Aire (The Dive) (2023) AMZN WEB-DL 1080p Latino pelicula completa, Sin Aire (The Dive) (2023) AMZN WEB-DL 1080p Latino descargar gratis, descargar Sin Aire (The Dive) (2023) AMZN WEB-DL 1080p Latino pelicula latino, Sin Aire (The Dive) (2023) AMZN WEB-DL 1080p Latino 1 link mega, Sin Aire (The Dive) (2023) AMZN WEB-DL 1080p Latino 1 link google drive, Sin Aire (The Dive) (2023) AMZN WEB-DL 1080p Latino hd 1080p latino.
Comentarios 0