×

¿Problemas para descargar con Mozilla, EDGE? Deshabilita la opción "Abrir vinculos en una pestaña nueva" tal como lo muestra ésta imagen.

Silo (2023) Primera Temporada APTV+ WEB-DL 1080p Latino

410 vistas

Información de Silo (2023) Primera Temporada APTV+ WEB-DL 1080p Latino

Datos de la película

  • Calidad: 1080p
  • Audio: Español Latino AC3 5.1 WEB-DL - Ingles AC3 5.1 WEB-DL
  • Subtitulos: Español Latino SRT- FORZADOS SRT
  • Resolución: 1920x1080
  • Formato: MKV
  • Codec: H.264
  • Encoder: cinemaniahdd
  • Mediainfo: Clic para Mostrar Datos Ver
  • Silo T01E01 APTV+ WEB-DL 1080p Latino [CNMNHDD].mkv
    Format                      : Matroska
    Format version              : Version 4
    File size                   : 5.13 GiB
    Duration                    : 59 min 23 s
    Overall bit rate            : 12.4 Mb/s
    Movie name                  : Silo S01E01 - Dia de la libertad [1080p] - CinemaniaHDD.Net
    Encoded date                : UTC 2023-05-26 21:48:16
    Writing application         : mkvmerge v56.1.0 ('My Friend') 64-bit
    Writing library             : libebml v1.4.2 + libmatroska v1.6.4

    Video
    ID                          : 1
    Format                      : AVC
    Format/Info                 : Advanced Video Codec
    Format profile              : High@L4
    Format settings             : CABAC / 4 Ref Frames
    Format settings, CABAC      : Yes
    Format settings, Reference  : 4 frames
    Codec ID                    : V_MPEG4/ISO/AVC
    Duration                    : 59 min 23 s
    Bit rate                    : 10.2 Mb/s
    Width                       : 1 920 pixels
    Height                      : 960 pixels
    Display aspect ratio        : 2.000
    Frame rate mode             : Constant
    Frame rate                  : 23.976 (24000/1001) FPS
    Color space                 : YUV
    Chroma subsampling          : 4:2:0
    Bit depth                   : 8 bits
    Scan type                   : Progressive
    Bits/(Pixel*Frame)          : 0.230
    Stream size                 : 4.22 GiB (82%)
    Title                       : CinemaniaHDD
    Default                     : Yes
    Forced                      : No
    Color range                 : Limited
    Color primaries             : BT.709
    Transfer characteristics    : BT.709
    Matrix coefficients         : BT.709

    Audio #1
    ID                          : 2
    Format                      : AC-3
    Format/Info                 : Audio Coding 3
    Commercial name             : Dolby Digital
    Codec ID                    : A_AC3
    Duration                    : 59 min 23 s
    Bit rate mode               : Constant
    Bit rate                    : 640 kb/s
    Channel(s)                  : 6 channels
    Channel layout              : L R C LFE Ls Rs
    Sampling rate               : 48.0 kHz
    Frame rate                  : 31.250 FPS (1536 SPF)
    Compression mode            : Lossy
    Stream size                 : 272 MiB (5%)
    Title                       : Español Latino [CinemaniaHDD]
    Language                    : Spanish
    Service kind                : Complete Main
    Default                     : Yes
    Forced                      : No

    Audio #2
    ID                          : 3
    Format                      : E-AC-3 JOC
    Format/Info                 : Enhanced AC-3 with Joint Object Coding
    Commercial name             : Dolby Digital Plus with Dolby Atmos
    Codec ID                    : A_EAC3
    Duration                    : 59 min 23 s
    Bit rate mode               : Constant
    Bit rate                    : 768 kb/s
    Channel(s)                  : 6 channels
    Channel layout              : L R C LFE Ls Rs
    Sampling rate               : 48.0 kHz
    Frame rate                  : 31.250 FPS (1536 SPF)
    Compression mode            : Lossy
    Stream size                 : 326 MiB (6%)
    Title                       : Español latino / E-AC3 [CinemaniaHDD]
    Language                    : Spanish
    Service kind                : Complete Main
    Default                     : No
    Forced                      : No
    Complexity index            : 16
    Number of dynamic objects   : 15
    Bed channel count           : 1 channel
    Bed channel configuration   : LFE

    Audio #3
    ID                          : 4
    Format                      : E-AC-3 JOC
    Format/Info                 : Enhanced AC-3 with Joint Object Coding
    Commercial name             : Dolby Digital Plus with Dolby Atmos
    Codec ID                    : A_EAC3
    Duration                    : 59 min 23 s
    Bit rate mode               : Constant
    Bit rate                    : 768 kb/s
    Channel(s)                  : 6 channels
    Channel layout              : L R C LFE Ls Rs
    Sampling rate               : 48.0 kHz
    Frame rate                  : 31.250 FPS (1536 SPF)
    Compression mode            : Lossy
    Stream size                 : 326 MiB (6%)
    Title                       : Inglés [CinemaniaHDD]
    Language                    : English
    Service kind                : Complete Main
    Default                     : No
    Forced                      : No
    Complexity index            : 16
    Number of dynamic objects   : 15
    Bed channel count           : 1 channel
    Bed channel configuration   : LFE

    Text #1
    ID                          : 5
    Format                      : UTF-8
    Codec ID                    : S_TEXT/UTF8
    Codec ID/Info               : UTF-8 Plain Text
    Duration                    : 54 min 44 s
    Bit rate                    : 2 b/s
    Count of elements           : 27
    Stream size                 : 950 Bytes (0%)
    Title                       : Forzados [CinemaniaHDD]
    Language                    : Spanish
    Default                     : Yes
    Forced                      : Yes

    Text #2
    ID                          : 6
    Format                      : UTF-8
    Codec ID                    : S_TEXT/UTF8
    Codec ID/Info               : UTF-8 Plain Text
    Duration                    : 59 min 15 s
    Bit rate                    : 50 b/s
    Count of elements           : 647
    Stream size                 : 22.1 KiB (0%)
    Title                       : Español Latino [CinemaniaHDD]
    Language                    : Spanish
    Default                     : No
    Forced                      : No

    Text #3
    ID                          : 7
    Format                      : UTF-8
    Codec ID                    : S_TEXT/UTF8
    Codec ID/Info               : UTF-8 Plain Text
    Duration                    : 58 min 14 s
    Bit rate                    : 48 b/s
    Count of elements           : 611
    Stream size                 : 20.8 KiB (0%)
    Title                       : Inglés [CinemaniaHDD]
    Language                    : English
    Default                     : No
    Forced                      : No

     

  • Peso: 5.13 GiB Aprox ---- 43 GiB in 10 Chapters.

Sinopsis

En un futuro desolado y tóxico, miles de personas viven en un enorme silo subterráneo. Después de que el alguacil rompe la regla principal y algunos residentes mueren misteriosamente, la ingeniera Juliette comienza a descubrir secretos sorprendentes y la verdad sobre el silo.

Ficha técnica

Video trailer de la película

Enlaces de descarga

Rip de Bluray

Descargar Silo (2023) Primera Temporada APTV+ WEB-DL 1080p Latino




Aportes de DPeliculasHDmega la pass es:dpeliculashdmega.org Aportes de CinemaniaHD la pass es:cinemaniahdd.com Aportes recientes:cinemaniahdd.net
Guardado en : Drama , Sci-Fi & Fantasy , Series

Películas relacionadas

descargar Silo (2023) Primera Temporada APTV+ WEB-DL 1080p Latino 1080p 1080p gratis, Silo (2023) Primera Temporada APTV+ WEB-DL 1080p Latino 1080p mega 1 link, Silo (2023) Primera Temporada APTV+ WEB-DL 1080p Latino 1080p serie completa, descargar Silo (2023) Primera Temporada APTV+ WEB-DL 1080p Latino 1080p gratis en mega.

Silo (2023) Primera Temporada APTV+ WEB-DL 1080p Latino pelicula full hd, Silo (2023) Primera Temporada APTV+ WEB-DL 1080p Latino mega latino, Silo (2023) Primera Temporada APTV+ WEB-DL 1080p Latino 4k latino, Silo (2023) Primera Temporada APTV+ WEB-DL 1080p Latino pelicula completa, Silo (2023) Primera Temporada APTV+ WEB-DL 1080p Latino descargar gratis, descargar Silo (2023) Primera Temporada APTV+ WEB-DL 1080p Latino pelicula latino, Silo (2023) Primera Temporada APTV+ WEB-DL 1080p Latino 1 link mega, Silo (2023) Primera Temporada APTV+ WEB-DL 1080p Latino 1 link google drive, Silo (2023) Primera Temporada APTV+ WEB-DL 1080p Latino hd 1080p latino.
Comentarios 0