×

¿Problemas para descargar con Mozilla, EDGE? Deshabilita la opción "Abrir vinculos en una pestaña nueva" tal como lo muestra ésta imagen.

Silicon Valley (2019) Temporada 6 AMZN WEB-DL 1080p Latino

2.176 vistas

Información de Silicon Valley (2019) Temporada 6 AMZN WEB-DL 1080p Latino

Datos de la película

  • Calidad: WEBDL
  • Audio: Español Latino AC3 2.0 - Ingles AC3 5.1 HBO
  • Subtitulos: Español Latino SRT- FORZADOS SRT
  • Resolución: 1920x1080
  • Formato: MKV
  • Codec: H.264
  • Encoder: cinemaniahdd
  • Mediainfo: Clic para Mostrar Datos Ver
  • Silicon Valley T06E01 AMZN WEB-DL 1080p Latino.mkv
    Format                      : Matroska
    Format version              : Version 4
    File size                   : 2.00 GiB
    Duration                    : 31 min 5 s
    Overall bit rate            : 9 206 kb/s
    Movie name                  : Silicon Valley T06E01 - CinemaniaHDD.Net
    Encoded date                : UTC 2019-10-28 22:59:34
    Writing application         : mkvmerge v38.0.0 ('The Silent Type') 64-bit
    Writing library             : libebml v1.3.9 + libmatroska v1.5.2

    Video
    ID                          : 1
    Format                      : AVC
    Format/Info                 : Advanced Video Codec
    Format profile              : High@L4
    Format settings             : CABAC / 4 Ref Frames
    Format settings, CABAC      : Yes
    Format settings, ReFrames   : 4 frames
    Codec ID                    : V_MPEG4/ISO/AVC
    Duration                    : 31 min 5 s
    Bit rate mode               : Constant
    Bit rate                    : 8 755 kb/s
    Nominal bit rate            : 10 000 kb/s
    Width                       : 1 920 pixels
    Height                      : 1 080 pixels
    Display aspect ratio        : 16:9
    Frame rate mode             : Constant
    Frame rate                  : 23.976 (24000/1001) FPS
    Color space                 : YUV
    Chroma subsampling          : 4:2:0
    Bit depth                   : 8 bits
    Scan type                   : Progressive
    Bits/(Pixel*Frame)          : 0.176
    Stream size                 : 1.90 GiB (95%)
    Title                       : CinemaniaHDD
    Default                     : Yes
    Forced                      : No
    Color range                 : Limited
    Color primaries             : BT.709
    Transfer characteristics    : BT.709
    Matrix coefficients         : BT.709

    Audio #1
    ID                          : 2
    Format                      : AC-3
    Format/Info                 : Audio Coding 3
    Commercial name             : Dolby Digital
    Codec ID                    : A_AC3
    Duration                    : 31 min 5 s
    Bit rate mode               : Constant
    Bit rate                    : 256 kb/s
    Channel(s)                  : 2 channels
    Channel layout              : L R
    Sampling rate               : 48.0 kHz
    Frame rate                  : 31.250 FPS (1536 SPF)
    Bit depth                   : 16 bits
    Compression mode            : Lossy
    Delay relative to video     : -15 ms
    Stream size                 : 56.9 MiB (3%)
    Title                       : Español latino [CinemaniaHDD]
    Language                    : Spanish
    Service kind                : Complete Main
    Default                     : Yes
    Forced                      : No

    Audio #2
    ID                          : 3
    Format                      : E-AC-3
    Format/Info                 : Enhanced AC-3
    Commercial name             : Dolby Digital Plus
    Codec ID                    : A_EAC3
    Duration                    : 31 min 5 s
    Bit rate mode               : Constant
    Bit rate                    : 192 kb/s
    Channel(s)                  : 6 channels
    Channel layout              : L R C LFE Ls Rs
    Sampling rate               : 48.0 kHz
    Frame rate                  : 31.250 FPS (1536 SPF)
    Compression mode            : Lossy
    Delay relative to video     : -8 ms
    Stream size                 : 42.7 MiB (2%)
    Title                       : Inglés [CinemaniaHDD]
    Language                    : English
    Service kind                : Complete Main
    Default                     : No
    Forced                      : No

    Text #1
    ID                          : 4
    Format                      : UTF-8
    Codec ID                    : S_TEXT/UTF8
    Codec ID/Info               : UTF-8 Plain Text
    Duration                    : 9 min 39 s
    Bit rate                    : 2 b/s
    Count of elements           : 9
    Stream size                 : 171 Bytes (0%)
    Title                       : Forzados [CinemaniaHDD]
    Language                    : Spanish
    Default                     : Yes
    Forced                      : Yes

    Text #2
    ID                          : 5
    Format                      : UTF-8
    Codec ID                    : S_TEXT/UTF8
    Codec ID/Info               : UTF-8 Plain Text
    Duration                    : 28 min 28 s
    Bit rate                    : 88 b/s
    Count of elements           : 565
    Stream size                 : 18.5 KiB (0%)
    Title                       : Español latino [CinemaniaHDD]
    Language                    : Spanish
    Default                     : No
    Forced                      : No

    Text #3
    ID                          : 6
    Format                      : UTF-8
    Codec ID                    : S_TEXT/UTF8
    Codec ID/Info               : UTF-8 Plain Text
    Duration                    : 30 min 55 s
    Bit rate                    : 103 b/s
    Count of elements           : 740
    Stream size                 : 23.5 KiB (0%)
    Title                       : Inglés [CinemaniaHDD]
    Language                    : English
    Default                     : No
    Forced                      : No

     

  • Peso: 2.00 GiB C/ U

Sinopsis

En la fiebre del oro de alta tecnología moderna de Silicon Valley, las personas más calificadas para tener éxito son los menos capaces de manejar el éxito. Parcialmente inspirada en las propias experiencias de Mike Judge como ingeniero de Silicon Valley a finales de los años 80, Silicon Valley es una comedia de situación estadounidense que se centra en torno a seis programadores que están viviendo juntos y tratando de hacer algo grande en el Silicon Valley.

7 CAPITULO AGREGADO

FINAL DE LA SERIE

Ficha técnica

Video trailer de la película

Enlaces de descarga

Rip de Bluray

Descargar Silicon Valley (2019) Temporada 6 AMZN WEB-DL 1080p Latino




Aportes de DPeliculasHDmega la pass es:dpeliculashdmega.org Aportes de CinemaniaHD la pass es:cinemaniahdd.com
Guardado en : Comedia , HBO , Series

Películas relacionadas

Silicon Valley (2019) Temporada 6 AMZN WEB-DL 1080p Latino pelicula full hd, Silicon Valley (2019) Temporada 6 AMZN WEB-DL 1080p Latino mega latino, Silicon Valley (2019) Temporada 6 AMZN WEB-DL 1080p Latino 4k latino, Silicon Valley (2019) Temporada 6 AMZN WEB-DL 1080p Latino pelicula completa, Silicon Valley (2019) Temporada 6 AMZN WEB-DL 1080p Latino descargar gratis, descargar Silicon Valley (2019) Temporada 6 AMZN WEB-DL 1080p Latino pelicula latino, Silicon Valley (2019) Temporada 6 AMZN WEB-DL 1080p Latino 1 link mega, Silicon Valley (2019) Temporada 6 AMZN WEB-DL 1080p Latino 1 link google drive, Silicon Valley (2019) Temporada 6 AMZN WEB-DL 1080p Latino hd 1080p latino.
Comentarios 2
  • FrankMac - 30 octubre, 2019

    Gracias por el aporte, Saludos.

  • cranck_247 - 29 octubre, 2019

    Muchas gracias, espero y sigan compartiendo los episodios