×

¿Problemas para descargar con Mozilla, EDGE? Deshabilita la opción "Abrir vinculos en una pestaña nueva" tal como lo muestra ésta imagen.

Silent Hill (2006) [Open Matte] AMZN WEB-DL 1080p Latino

4.866 vistas

Información de Silent Hill (2006) [Open Matte] AMZN WEB-DL 1080p Latino

Datos de la película

  • Calidad: 1080p
  • Audio: Español Latino AC3 5.1 WEB-DL - Ingles AC3 5.1 WEB-DL
  • Subtitulos: Español Latino SRT- FORZADOS SRT
  • Resolución: 1920x1080p
  • Formato: MKV
  • Codec: H.264
  • Encoder: cinemaniahdd
  • Mediainfo: Clic para Mostrar Datos Ver
  • Silent Hill (2006) [Open Matte] AMZN WEB-DL 1080p Latino [CNMNHDD].mkv
    Format                      : Matroska
    Format version              : Version 4
    File size                   : 10.8 GiB
    Duration                    : 2 h 5 min
    Overall bit rate mode       : Variable
    Overall bit rate            : 12.3 Mb/s
    Movie name                  : Silent Hill (2006) [1080p] Open Matte - CinemaniaHDD.Net
    Encoded date                : UTC 2022-08-08 02:27:01
    Writing application         : mkvmerge v56.1.0 ('My Friend') 64-bit
    Writing library             : libebml v1.4.2 + libmatroska v1.6.4

    Video
    ID                          : 1
    Format                      : AVC
    Format/Info                 : Advanced Video Codec
    Format profile              : High@L4
    Format settings             : CABAC / 4 Ref Frames
    Format settings, CABAC      : Yes
    Format settings, Reference  : 4 frames
    Codec ID                    : V_MPEG4/ISO/AVC
    Duration                    : 2 h 5 min
    Bit rate mode               : Variable
    Bit rate                    : 10.4 Mb/s
    Maximum bit rate            : 15.0 Mb/s
    Width                       : 1 920 pixels
    Height                      : 1 080 pixels
    Display aspect ratio        : 16:9
    Frame rate mode             : Constant
    Frame rate                  : 23.976 (24000/1001) FPS
    Color space                 : YUV
    Chroma subsampling          : 4:2:0
    Bit depth                   : 8 bits
    Scan type                   : Progressive
    Bits/(Pixel*Frame)          : 0.208
    Stream size                 : 9.07 GiB (84%)
    Title                       : CinemaniaHDD
    Writing library             : x264 core 148 r2623 d5b2374
    Encoding settings           : cabac=1 / ref=4 / deblock=1:-1:-1 / analyse=0x3:0x133 / me=umh / subme=9 / psy=1 / psy_rd=1.00:0.15 / mixed_ref=1 / me_range=24 / chroma_me=1 / trellis=2 / 8x8dct=1 / cqm=0 / deadzone=21,11 / fast_pskip=1 / chroma_qp_offset=-3 / threads=34 / lookahead_threads=5 / sliced_threads=0 / nr=150 / decimate=1 / interlaced=0 / bluray_compat=0 / constrained_intra=0 / bframes=8 / b_pyramid=2 / b_adapt=2 / b_bias=0 / direct=3 / weightb=1 / open_gop=0 / weightp=2 / keyint=120 / keyint_min=61 / scenecut=0 / intra_refresh=0 / rc_lookahead=120 / rc=crf / mbtree=1 / crf=18.0 / qcomp=0.60 / qpmin=0 / qpmax=69 / qpstep=4 / vbv_maxrate=15000 / vbv_bufsize=31250 / crf_max=0.0 / nal_hrd=vbr / filler=0 / ip_ratio=1.40 / aq=3:1.00
    Language                    : English
    Default                     : Yes
    Forced                      : No
    Color range                 : Limited
    Color primaries             : BT.709
    Transfer characteristics    : BT.709
    Matrix coefficients         : BT.709

    Audio #1
    ID                          : 2
    Format                      : AC-3
    Format/Info                 : Audio Coding 3
    Commercial name             : Dolby Digital
    Codec ID                    : A_AC3
    Duration                    : 2 h 5 min
    Bit rate mode               : Constant
    Bit rate                    : 640 kb/s
    Channel(s)                  : 6 channels
    Channel layout              : L R C LFE Ls Rs
    Sampling rate               : 48.0 kHz
    Frame rate                  : 31.250 FPS (1536 SPF)
    Compression mode            : Lossy
    Stream size                 : 574 MiB (5%)
    Title                       : Español latino [CinemaniaHDD]
    Language                    : Spanish
    Service kind                : Complete Main
    Default                     : Yes
    Forced                      : No

    Audio #2
    ID                          : 3
    Format                      : E-AC-3
    Format/Info                 : Enhanced AC-3
    Commercial name             : Dolby Digital Plus
    Codec ID                    : A_EAC3
    Duration                    : 2 h 5 min
    Bit rate mode               : Constant
    Bit rate                    : 640 kb/s
    Channel(s)                  : 6 channels
    Channel layout              : L R C LFE Ls Rs
    Sampling rate               : 48.0 kHz
    Frame rate                  : 31.250 FPS (1536 SPF)
    Compression mode            : Lossy
    Stream size                 : 574 MiB (5%)
    Title                       : Español latino / E-AC3 [CinemaniaHDD]
    Language                    : Spanish
    Service kind                : Complete Main
    Default                     : No
    Forced                      : No

    Audio #3
    ID                          : 4
    Format                      : E-AC-3
    Format/Info                 : Enhanced AC-3
    Commercial name             : Dolby Digital Plus
    Codec ID                    : A_EAC3
    Duration                    : 2 h 5 min
    Bit rate mode               : Constant
    Bit rate                    : 640 kb/s
    Channel(s)                  : 6 channels
    Channel layout              : L R C LFE Ls Rs
    Sampling rate               : 48.0 kHz
    Frame rate                  : 31.250 FPS (1536 SPF)
    Compression mode            : Lossy
    Stream size                 : 574 MiB (5%)
    Title                       : Inglés [CinemaniaHDD]
    Language                    : English
    Service kind                : Complete Main
    Default                     : No
    Forced                      : No

    Text #1
    ID                          : 5
    Format                      : UTF-8
    Codec ID                    : S_TEXT/UTF8
    Codec ID/Info               : UTF-8 Plain Text
    Duration                    : 1 h 56 min
    Bit rate                    : 0 b/s
    Count of elements           : 8
    Stream size                 : 148 Bytes (0%)
    Title                       : Español latino [CinemaniaHDD]
    Language                    : Spanish
    Default                     : Yes
    Forced                      : Yes

    Text #2
    ID                          : 6
    Format                      : UTF-8
    Codec ID                    : S_TEXT/UTF8
    Codec ID/Info               : UTF-8 Plain Text
    Duration                    : 1 h 59 min
    Bit rate                    : 27 b/s
    Count of elements           : 879
    Stream size                 : 24.2 KiB (0%)
    Title                       : Completos
    Language                    : Spanish
    Default                     : No
    Forced                      : No

    Menu
    00:00:00.000                : Studio Logos
    00:00:23.000                : Rose and Chris Search for Sharon; Multiple Locations
    00:03:11.000                : Title Sequence
    00:03:21.000                : Rose Tells Sharon Where They Are Going; Under a Tree
    00:05:52.000                : Chris Learns His Wife's Plans; Rose's Home
    00:06:41.000                : Rose Struggles to Get Sharon to Silent Hill; Gas Station
    00:10:30.000                : Cybil Tries to Intercept Rose; Road
    00:13:02.000                : Rose Awakens in a Strange Place; Car and Highway
    00:14:56.000                : Rose Chases after Sharon; Silent Hill
    00:17:22.000                : Rose Searches for Sharon; Basement
    00:21:32.000                : Rose Meets Dahlia at the Edge of Town; Silent Hill
    00:24:42.000                : Chris Asks an Old Mechanic about Silent Hill; Gas Station
    00:25:41.000                : Cybil Places Rose under Arrest; Fog World
    00:28:50.000                : Chris Learns about Rose's Situation; Bridge
    00:30:19.000                : Cybil Begins to Understand the Gravity of the Situation; Highway
    00:33:20.000                : Rose Continues Her Search for the School; Silent Hill
    00:34:25.000                : Rose Scrounges for Supplies; Midwhich Elementary
    00:36:34.000                : Officer Gucci Calls out to Rose; Silent Hill
    00:37:32.000                : Rose Flees from Three Masked Men; Midwhich Elementary
    00:38:43.000                : Rose Finds Alessa's Defaced Desk; Midwhich Elementary
    00:40:19.000                : Alessa Double Dares Rose; Midwhich Elementary
    00:44:27.000                : Rose Recieves the Help She Prayed for; Midwhich Elementary
    00:47:15.000                : Chris and Officer Gucci Search for Rose; Midwhich Elementary
    00:47:27.000                : Rose Fleas from Pyramid Head; Midwhich Elementary
    00:48:21.000                : Chris Feels Rose's Prescence; Midwhich Elementary
    00:49:54.000                : Cybil Returns; Midwhich Elementary
    00:53:44.000                : Rose and Cybil Decide on Their Goal; Midwhich Elementary
    00:54:38.000                : Chris Begins to Question what Happened; Multiple Locations
    00:55:41.000                : Rose and Cybil Find Anna and Dahlia; Grand Hotel
    00:58:59.000                : Chris Searches the Silent Hill Records; Brahams Archives
    01:01:15.000                : Rose Discovers the Secret of Room 111; Grand Hotel and Factory
    01:07:56.000                : Rose and Cybil Race to the Church; Multiple Locations
    01:11:14.000                : Rose and Cybil Find Themselves Less Than Welcome; Church
    01:13:45.000                : Chris Confronts Sister Margaret about Sharon; Orphanage
    01:15:38.000                : Officer Gucci Offers Chris the Truth; Orphanage
    01:16:50.000                : Christabella Offers to Lead Rose and Cybil to Alessa; Church
    01:19:21.000                : The Escort Falls Through; Hospital
    01:23:50.000                : Rose Navigates the Twisted Hallways; Hospital
    01:27:23.000                : Alessa Rewards Rose with the Truth; Multiple Locations
    01:33:39.000                : Rose Makes a Deal with the Devil; Hospital
    01:37:08.000                : Christabella Comes to Claim Sharon; Dahlia's Home
    01:38:22.000                : Officer Gucci Gives Chris a Warning; Roadside
    01:39:55.000                : Christabella Begins the Puriffication; Church
    01:43:02.000                : Rose Returns to Save Sharon; Church
    01:46:41.000                : Something Wicked This Way Comes; Church
    01:52:01.000                : Mother Is God, in the Eyes of the Child; Church
    01:53:08.000                : Rose and Sharon Return to Their Car; Road
    01:54:32.000                : Rose and Sharon Finally Return Home; Multiple Locations
    01:57:55.000                : End Credits

     

  • Peso: 10.8 GiB

Sinopsis

Rose, desesperada por encontrar una cura para la misteriosa enfermedad de su hija Sharon, rehúsa ingresar a la niña en una institución psiquiátrica a pesar de las recomendaciones de los médicos, y decide huir a Silent Hill, un pueblo del que su hija habla constantemente en sueños. A pesar de que su marido Christopher se opone al viaje, Rose está convencida de que la respuesta se encuentra en este misterioso lugar. Al aproximarse al pueblo, una misteriosa figura se alza en medio de la carretera. Rose, para no atropellarla, tiene un accidente. Cuando vuelve en sí, Sharon ha desaparecido. A partir de ese momento, acompañada por una agente de plicía, empieza una búsqueda desesperada en Silent Hill para encontrar a su hija. Las dos mujeres no tardan en darse cuenta de que el pueblo, que quedó desierto después de ser devastado por unos terribles incendios, no se parece a ningún otro.

Ficha técnica

  • Titulo original: Silent Hill
  • Fecha de lanzamiento: 21-04-2006 (Canada, France, Japan, United States of America)
  • Director: Christophe Gans
  • Género: Misterio, Terror

Video trailer de la película

Enlaces de descarga

Rip de Bluray

Descargar Silent Hill (2006) [Open Matte] AMZN WEB-DL 1080p Latino




Aportes de DPeliculasHDmega la pass es:dpeliculashdmega.org Aportes de CinemaniaHD la pass es:cinemaniahdd.com Aportes recientes:cinemaniahdd.net
Guardado en : Misterio , Terror

Películas relacionadas

descargar Silent Hill (2006) [Open Matte] AMZN WEB-DL 1080p Latino 1080p 1080p gratis, Silent Hill (2006) [Open Matte] AMZN WEB-DL 1080p Latino 1080p mega 1 link, Silent Hill (2006) [Open Matte] AMZN WEB-DL 1080p Latino 1080p pelicula completa, descargar Silent Hill (2006) [Open Matte] AMZN WEB-DL 1080p Latino 1080p gratis en mega.

Silent Hill (2006) [Open Matte] AMZN WEB-DL 1080p Latino pelicula full hd, Silent Hill (2006) [Open Matte] AMZN WEB-DL 1080p Latino mega latino, Silent Hill (2006) [Open Matte] AMZN WEB-DL 1080p Latino 4k latino, Silent Hill (2006) [Open Matte] AMZN WEB-DL 1080p Latino pelicula completa, Silent Hill (2006) [Open Matte] AMZN WEB-DL 1080p Latino descargar gratis, descargar Silent Hill (2006) [Open Matte] AMZN WEB-DL 1080p Latino pelicula latino, Silent Hill (2006) [Open Matte] AMZN WEB-DL 1080p Latino 1 link mega, Silent Hill (2006) [Open Matte] AMZN WEB-DL 1080p Latino 1 link google drive, Silent Hill (2006) [Open Matte] AMZN WEB-DL 1080p Latino hd 1080p latino.
Comentarios 27