×

¿Problemas para descargar con Mozilla, EDGE? Deshabilita la opción "Abrir vinculos en una pestaña nueva" tal como lo muestra ésta imagen.

Silent Hill. Revelation (2012) [Open Matte] AMZN WEB-DL 1080p Latino

683 vistas

Información de Silent Hill. Revelation (2012) [Open Matte] AMZN WEB-DL 1080p Latino

Datos de la película

  • Calidad: 1080p
  • Audio: Español Latino AC3 2.0 WEB-DL - Ingles AC3 5.1 WEB-DL
  • Subtitulos: Español Latino SRT- FORZADOS SRT
  • Resolución: 1920x1080p
  • Formato: MKV
  • Codec: H.264
  • Encoder: cinemaniahdd
  • Mediainfo: Clic para Mostrar Datos Ver
  • Silent Hill. Revelation (2012) [Open Matte] AMZN WEB-DL 1080p Latino [CNMNHDD].mkv
    Format                      : Matroska
    Format version              : Version 4
    File size                   : 7.13 GiB
    Duration                    : 1 h 34 min
    Overall bit rate            : 10.8 Mb/s
    Movie name                  : Silent Hill. Revelation (2012) [1080p] Open Matte - CinemaniaHDD.Net
    Encoded date                : UTC 2022-08-08 02:45:19
    Writing application         : mkvmerge v56.1.0 ('My Friend') 64-bit
    Writing library             : libebml v1.4.2 + libmatroska v1.6.4

    Video
    ID                          : 1
    Format                      : AVC
    Format/Info                 : Advanced Video Codec
    Format profile              : High@L4
    Format settings             : CABAC / 4 Ref Frames
    Format settings, CABAC      : Yes
    Format settings, Reference  : 4 frames
    Codec ID                    : V_MPEG4/ISO/AVC
    Duration                    : 1 h 34 min
    Bit rate mode               : Constant
    Bit rate                    : 10 000 kb/s
    Width                       : 1 920 pixels
    Height                      : 1 080 pixels
    Display aspect ratio        : 16:9
    Frame rate mode             : Constant
    Frame rate                  : 29.970 (30000/1001) FPS
    Color space                 : YUV
    Chroma subsampling          : 4:2:0
    Bit depth                   : 8 bits
    Scan type                   : Progressive
    Bits/(Pixel*Frame)          : 0.161
    Stream size                 : 6.30 GiB (88%)
    Title                       : CinemaniaHDD
    Default                     : Yes
    Forced                      : No
    Color range                 : Limited
    Color primaries             : BT.709
    Transfer characteristics    : BT.709
    Matrix coefficients         : BT.709

    Audio #1
    ID                          : 2
    Format                      : AC-3
    Format/Info                 : Audio Coding 3
    Commercial name             : Dolby Digital
    Codec ID                    : A_AC3
    Duration                    : 1 h 34 min
    Bit rate mode               : Constant
    Bit rate                    : 384 kb/s
    Channel(s)                  : 2 channels
    Channel layout              : L R
    Sampling rate               : 48.0 kHz
    Frame rate                  : 31.250 FPS (1536 SPF)
    Compression mode            : Lossy
    Stream size                 : 260 MiB (4%)
    Title                       : Español latino [CinemaniaHDD]
    Language                    : Spanish
    Service kind                : Complete Main
    Default                     : Yes
    Forced                      : No

    Audio #2
    ID                          : 3
    Format                      : E-AC-3
    Format/Info                 : Enhanced AC-3
    Commercial name             : Dolby Digital Plus
    Codec ID                    : A_EAC3
    Duration                    : 1 h 34 min
    Bit rate mode               : Constant
    Bit rate                    : 224 kb/s
    Channel(s)                  : 2 channels
    Channel layout              : L R
    Sampling rate               : 48.0 kHz
    Frame rate                  : 31.250 FPS (1536 SPF)
    Compression mode            : Lossy
    Stream size                 : 151 MiB (2%)
    Title                       : Español latino / E-AC3 [CinemaniaHDD]
    Language                    : Spanish
    Service kind                : Complete Main
    Default                     : No
    Forced                      : No

    Audio #3
    ID                          : 4
    Format                      : E-AC-3
    Format/Info                 : Enhanced AC-3
    Commercial name             : Dolby Digital Plus
    Codec ID                    : A_EAC3
    Duration                    : 1 h 34 min
    Bit rate mode               : Constant
    Bit rate                    : 640 kb/s
    Channel(s)                  : 6 channels
    Channel layout              : L R C LFE Ls Rs
    Sampling rate               : 48.0 kHz
    Frame rate                  : 31.250 FPS (1536 SPF)
    Compression mode            : Lossy
    Stream size                 : 433 MiB (6%)
    Title                       : Inglés [CinemaniaHDD]
    Language                    : English
    Service kind                : Complete Main
    Default                     : No
    Forced                      : No

    Text #1
    ID                          : 5
    Format                      : UTF-8
    Codec ID                    : S_TEXT/UTF8
    Codec ID/Info               : UTF-8 Plain Text
    Duration                    : 1 h 28 min
    Bit rate                    : 0 b/s
    Count of elements           : 14
    Stream size                 : 307 Bytes (0%)
    Title                       : Forzados [CinemaniaHDD]
    Language                    : Spanish
    Default                     : Yes
    Forced                      : Yes

    Text #2
    ID                          : 6
    Format                      : UTF-8
    Codec ID                    : S_TEXT/UTF8
    Codec ID/Info               : UTF-8 Plain Text
    Duration                    : 1 h 28 min
    Bit rate                    : 35 b/s
    Count of elements           : 774
    Stream size                 : 22.8 KiB (0%)
    Title                       : Español latino [CinemaniaHDD]
    Language                    : Spanish
    Default                     : No
    Forced                      : No

    Text #3
    ID                          : 7
    Format                      : UTF-8
    Codec ID                    : S_TEXT/UTF8
    Codec ID/Info               : UTF-8 Plain Text
    Duration                    : 1 h 23 min
    Bit rate                    : 36 b/s
    Count of elements           : 795
    Stream size                 : 22.5 KiB (0%)
    Title                       : Inglés [CinemaniaHDD]
    Language                    : English
    Default                     : No
    Forced                      : No

    Menu
    00:00:00.000                : Studio Logo
    00:00:20.000                : Studio Logos
    00:00:32.000                : Title Sequence
    00:00:56.000                : Heather Has a Nightmare
    00:04:29.000                : Heather and Harry Talk over Breakfast
    00:07:20.000                : Harry Remembers the Past
    00:10:05.000                : Heather Sets Off for School
    00:11:30.000                : Heather Introduces Herself to Her New Class
    00:13:07.000                : Heather Has a Daydream
    00:15:47.000                : Heather Tells Harry That She's Being Followed
    00:16:56.000                : Heather Has Visions
    00:21:34.000                : Heather Finds Her Way Out
    00:23:52.000                : Vincent Walks Heather Home
    00:27:48.000                : Heather Asks for Vincent's Help
    00:31:16.000                : Heather Learns the Truth
    00:33:03.000                : Heather and Vincent Stop
    00:36:41.000                : Heather Finds Out the Truth about Vincent
    00:40:37.000                : Heather Walks Into Silent Hill
    00:47:15.000                : Heather Rescues Suki, Mannequin Warehouse
    00:52:25.000                : Vincent Talks To His Mother About Alessa
    00:53:46.000                : Heather Finds Leonard Wolfe
    01:02:39.000                : Heather Escapes from Leonard
    01:05:28.000                : Heather Frees Vincent
    01:09:52.000                : Heather Meets Alessa
    01:16:22.000                : Heather Finds Her Father
    01:22:48.000                : Heather Is Free from Silent Hill
    01:25:24.000                : Heather and Vincent Get a Ride Out of Silent Hill
    01:27:12.000                : End Credits

     

  • Peso: 7.13 GiB

Sinopsis

Cuando cumple 18 años, Heather Mason decide buscar a su padre. Las pesdillas que la acechan la conducen a la ciudad de la niebla eterna, donde acabará descubriendo el misterio de Silent Hill. Secuela de la película Silent Hill, basada en una saga de videojuegos homónima.

Ficha técnica

Video trailer de la película

Enlaces de descarga

Rip de Bluray

Descargar Silent Hill. Revelation (2012) [Open Matte] AMZN WEB-DL 1080p Latino




Aportes de DPeliculasHDmega la pass es:dpeliculashdmega.org Aportes de CinemaniaHD la pass es:cinemaniahdd.com
Guardado en : Misterio , OPEN MATTE , Suspenso , Terror

Películas relacionadas

  • La Máquina infernal (2022) WEB-DL 1080p Latino

    La Máquina infernal (2022) WEB-DL 1080p Latino

    2022
    La Máquina infernal (2022) WEB-DL 1080p Latino

    1h 47m 2022

    Descargar La Máquina infernal (2022) WEB-DL 1080p Latino. Un fan obsesivo saca de su escondite al solitario...

    Director: Andrew Hunt

    Género: Suspenso

    Actores: Rocco Salata

  • Borrego: Sal Del Camino (2022) HD 1080p Latino

    Borrego: Sal Del Camino (2022) HD 1080p Latino

    2022
    Borrego: Sal Del Camino (2022) HD 1080p Latino

    1h 42m 2022

    Descargar Borrego: Sal Del Camino (2022) HD 1080p Latino. Una joven botánica se traslada a un pequeño...

    Director: Jesse Harris

    Género: Crimen

    Actores: Olivia Trujillo

  • Borrego: Sal Del Camino (2022) REMUX 1080p Latino

    Borrego: Sal Del Camino (2022) REMUX 1080p Latino

    2022
    Borrego: Sal Del Camino (2022) REMUX 1080p Latino

    1h 42m 2022

    Descargar Borrego: Sal Del Camino (2022) REMUX 1080p Latino. Una joven botánica se traslada a un pequeño...

    Director: Jesse Harris

    Género: Crimen

    Actores: Olivia Trujillo

  • Tren Bala (2022) WEB-DL 4K UHD HDR Latino

    Tren Bala (2022) WEB-DL 4K UHD HDR Latino

    2022
    Tren Bala (2022) WEB-DL 4K UHD HDR Latino

    2h 7m 2022

    Descargar Tren Bala (2022) WEB-DL 4K UHD HDR Latino. El desafortunado asesino "Catarina" está decidido...

    Director: Paul Barry

    Género: 4K HDR

    Actores: Zooey Miyoshi

descargar Silent Hill. Revelation (2012) [Open Matte] AMZN WEB-DL 1080p Latino 1080p 1080p gratis, Silent Hill. Revelation (2012) [Open Matte] AMZN WEB-DL 1080p Latino 1080p mega 1 link, Silent Hill. Revelation (2012) [Open Matte] AMZN WEB-DL 1080p Latino 1080p pelicula completa, descargar Silent Hill. Revelation (2012) [Open Matte] AMZN WEB-DL 1080p Latino 1080p gratis en mega.

Silent Hill. Revelation (2012) [Open Matte] AMZN WEB-DL 1080p Latino pelicula full hd, Silent Hill. Revelation (2012) [Open Matte] AMZN WEB-DL 1080p Latino mega latino, Silent Hill. Revelation (2012) [Open Matte] AMZN WEB-DL 1080p Latino 4k latino, Silent Hill. Revelation (2012) [Open Matte] AMZN WEB-DL 1080p Latino pelicula completa, Silent Hill. Revelation (2012) [Open Matte] AMZN WEB-DL 1080p Latino descargar gratis, descargar Silent Hill. Revelation (2012) [Open Matte] AMZN WEB-DL 1080p Latino pelicula latino, Silent Hill. Revelation (2012) [Open Matte] AMZN WEB-DL 1080p Latino 1 link mega, Silent Hill. Revelation (2012) [Open Matte] AMZN WEB-DL 1080p Latino 1 link google drive, Silent Hill. Revelation (2012) [Open Matte] AMZN WEB-DL 1080p Latino hd 1080p latino.
Comentarios 0