×

¿Problemas para descargar con Mozilla, EDGE? Deshabilita la opción "Abrir vinculos en una pestaña nueva" tal como lo muestra ésta imagen.

Sigue respirando (2022) Temporada 1 NF WEB-DL 1080p Latino

243 vistas

Información de Sigue respirando (2022) Temporada 1 NF WEB-DL 1080p Latino

Datos de la película

  • Calidad: WEBDL
  • Audio: Español Latino E-AC3 5.1 Netflix - Ingles E-AC3 5.1 Netflix
  • Subtitulos: Español Latino SRT- FORZADOS SRT
  • Resolución: 1920x1080p
  • Formato: MKV
  • Codec: H.264
  • Encoder: Melkor
  • Mediainfo: Clic para Mostrar Datos Ver
  • Keep Breathing S01E01 (2022) NF WebDL 1080p Latino.mkv
    Format                      : Matroska
    Format version              : Version 4
    File size                   : 846 MiB
    Duration                    : 34 min 37 s
    Overall bit rate mode       : Variable
    Overall bit rate            : 3 415 kb/s
    Movie name                  : Keep.Breathing.S01E01.Arrivals CinemaniaHDD.Net
    Encoded date                : UTC 2022-07-29 18:30:14
    Writing application         : mkvmerge v56.1.0 ('My Friend') 64-bit
    Writing library             : libebml v1.4.2 + libmatroska v1.6.4
    Attachments                 : CINEMANIAHD.png

    Video
    ID                          : 1
    Format                      : AVC
    Format/Info                 : Advanced Video Codec
    Format profile              : High@L4
    Format settings             : CABAC / 4 Ref Frames
    Format settings, CABAC      : Yes
    Format settings, Reference  : 4 frames
    Codec ID                    : V_MPEG4/ISO/AVC
    Duration                    : 34 min 29 s
    Bit rate mode               : Variable
    Bit rate                    : 2 141 kb/s
    Maximum bit rate            : 20.0 Mb/s
    Width                       : 1 920 pixels
    Height                      : 1 080 pixels
    Display aspect ratio        : 16:9
    Frame rate mode             : Constant
    Frame rate                  : 23.976 (24000/1001) FPS
    Color space                 : YUV
    Chroma subsampling          : 4:2:0
    Bit depth                   : 8 bits
    Scan type                   : Progressive
    Bits/(Pixel*Frame)          : 0.043
    Stream size                 : 528 MiB (62%)
    Title                       : WEB HD1080p [CinemaniaHDD]
    Writing library             : x264 core 148 r2727 7d026e8
    Encoding settings           : cabac=1 / ref=4 / deblock=1:0:0 / analyse=0x3:0x111 / me=umh / subme=10 / psy=1 / psy_rd=1.00:0.00 / mixed_ref=1 / me_range=120 / chroma_me=1 / trellis=2 / 8x8dct=1 / cqm=0 / deadzone=21,11 / fast_pskip=1 / chroma_qp_offset=-2 / threads=8 / lookahead_threads=2 / sliced_threads=0 / nr=0 / decimate=1 / interlaced=0 / bluray_compat=0 / stitchable=1 / constrained_intra=0 / bframes=16 / b_pyramid=2 / b_adapt=2 / b_bias=0 / direct=3 / weightb=1 / open_gop=0 / weightp=2 / keyint=240 / keyint_min=121 / scenecut=0 / intra_refresh=0 / rc_lookahead=240 / rc=crf / mbtree=1 / crf=21.0 / qcomp=0.50 / qpmin=6 / qpmax=51 / qpstep=4 / vbv_maxrate=20000 / vbv_bufsize=25000 / crf_max=0.0 / nal_hrd=vbr / filler=0 / ip_ratio=1.40 / aq=1:0.80
    Default                     : Yes
    Forced                      : No

    Audio #1
    ID                          : 2
    Format                      : E-AC-3
    Format/Info                 : Enhanced AC-3
    Commercial name             : Dolby Digital Plus
    Codec ID                    : A_EAC3
    Duration                    : 34 min 37 s
    Bit rate mode               : Constant
    Bit rate                    : 640 kb/s
    Channel(s)                  : 6 channels
    Channel layout              : L R C LFE Ls Rs
    Sampling rate               : 48.0 kHz
    Frame rate                  : 31.250 FPS (1536 SPF)
    Compression mode            : Lossy
    Stream size                 : 158 MiB (19%)
    Title                       : Español Latino [CinemaniaHDD]
    Language                    : Spanish
    Service kind                : Complete Main
    Default                     : Yes
    Forced                      : No

    Audio #2
    ID                          : 3
    Format                      : E-AC-3
    Format/Info                 : Enhanced AC-3
    Commercial name             : Dolby Digital Plus
    Codec ID                    : A_EAC3
    Duration                    : 34 min 37 s
    Bit rate mode               : Constant
    Bit rate                    : 640 kb/s
    Channel(s)                  : 6 channels
    Channel layout              : L R C LFE Ls Rs
    Sampling rate               : 48.0 kHz
    Frame rate                  : 31.250 FPS (1536 SPF)
    Compression mode            : Lossy
    Stream size                 : 158 MiB (19%)
    Title                       : Ingles [CinemaniaHDD]
    Language                    : English
    Service kind                : Complete Main
    Default                     : No
    Forced                      : No

    Text #1
    ID                          : 4
    Format                      : UTF-8
    Codec ID                    : S_TEXT/UTF8
    Codec ID/Info               : UTF-8 Plain Text
    Duration                    : 2 s 669 ms
    Bit rate                    : 59 b/s
    Count of elements           : 1
    Stream size                 : 20.0 Bytes (0%)
    Title                       : Forzados-SRT [CinemaniaHDD]
    Language                    : Spanish
    Default                     : Yes
    Forced                      : Yes

    Text #2
    ID                          : 5
    Format                      : UTF-8
    Codec ID                    : S_TEXT/UTF8
    Codec ID/Info               : UTF-8 Plain Text
    Duration                    : 33 min 0 s
    Bit rate                    : 34 b/s
    Count of elements           : 283
    Stream size                 : 8.25 KiB (0%)
    Title                       : Español-SRT [CinemaniaHDD]
    Language                    : Spanish
    Default                     : No
    Forced                      : No

    Text #3
    ID                          : 6
    Format                      : UTF-8
    Codec ID                    : S_TEXT/UTF8
    Codec ID/Info               : UTF-8 Plain Text
    Duration                    : 32 min 6 s
    Bit rate                    : 64 b/s
    Count of elements           : 392
    Stream size                 : 15.2 KiB (0%)
    Title                       : Ingles-SRT [CinemaniaHDD]
    Language                    : English
    Default                     : No
    Forced                      : No

  • Peso: 1.07 GiB Aprox C/U - 7.01 GiB - 6 Chapters

Sinopsis

Descargar Sigue respirando (2022) Temporada 1 NF WEB-DL 1080p Latino. Cuando una avioneta se estrella en medio de la naturaleza canadiense, la única superviviente debe hacer frente a los elementos y a sus propios traumas para sobrevivir.

Ficha técnica

Video trailer de la película

Enlaces de descarga

Rip de Bluray

Descargar Sigue respirando (2022) Temporada 1 NF WEB-DL 1080p Latino




Aportes de DPeliculasHDmega la pass es:dpeliculashdmega.org Aportes de CinemaniaHD la pass es:cinemaniahdd.com
Guardado en : Action & Adventure , Netflix , Series

Películas relacionadas

descargar Sigue respirando (2022) Temporada 1 NF WEB-DL 1080p Latino WEBDL 1080p gratis, Sigue respirando (2022) Temporada 1 NF WEB-DL 1080p Latino WEBDL mega 1 link, Sigue respirando (2022) Temporada 1 NF WEB-DL 1080p Latino WEBDL serie completa, descargar Sigue respirando (2022) Temporada 1 NF WEB-DL 1080p Latino WEBDL gratis en mega.

Sigue respirando (2022) Temporada 1 NF WEB-DL 1080p Latino pelicula full hd, Sigue respirando (2022) Temporada 1 NF WEB-DL 1080p Latino mega latino, Sigue respirando (2022) Temporada 1 NF WEB-DL 1080p Latino 4k latino, Sigue respirando (2022) Temporada 1 NF WEB-DL 1080p Latino pelicula completa, Sigue respirando (2022) Temporada 1 NF WEB-DL 1080p Latino descargar gratis, descargar Sigue respirando (2022) Temporada 1 NF WEB-DL 1080p Latino pelicula latino, Sigue respirando (2022) Temporada 1 NF WEB-DL 1080p Latino 1 link mega, Sigue respirando (2022) Temporada 1 NF WEB-DL 1080p Latino 1 link google drive, Sigue respirando (2022) Temporada 1 NF WEB-DL 1080p Latino hd 1080p latino.
Comentarios 0