×

¿Problemas para descargar con Mozilla, EDGE? Deshabilita la opción "Abrir vinculos en una pestaña nueva" tal como lo muestra ésta imagen.

Siete deseos (2017) Unrated Full Latino

2.100 vistas

Información de Siete deseos (2017) Unrated Full Latino

siete deseos 36466 poster

Datos de la película

  • Calidad: 1080p
  • Audio: Español Latino AC3 5.1 BLURAY - Ingles AC3 5.1 BLURAY
  • Subtitulos: Español Latino SRT - Ingles SRT
  • Resolución: 1920x800
  • Formato: MKV
  • Codec: H.264
  • Encoder: Dpelis1
  • Mediainfo: Clic para Mostrar Datos Ver
  • Video
    ID                                       : 1
    Format                                   : AVC
    Format/Info                              : Advanced Video Codec
    Format profile                           : High@L4.1
    Format settings, CABAC                   : Yes
    Format settings, RefFrames               : 4 frames
    Codec ID                                 : V_MPEG4/ISO/AVC
    Duration                                 : 1 h 30 min
    Bit rate                                 : 3 500 kb/s
    Width                                    : 1 920 pixels
    Height                                   : 800 pixels
    Display aspect ratio                     : 2.40:1
    Frame rate mode                          : Constant
    Frame rate                               : 23.976 (24000/1001) FPS
    Color space                              : YUV
    Chroma subsampling                       : 4:2:0
    Bit depth                                : 8 bits
    Scan type                                : Progressive
    Bits/(Pixel*Frame)                       : 0.095
    Stream size                              : 2.16 GiB (79%)
    Writing library                          : x264 core 148 r2708 86b7198
    Encoding settings                        : cabac=1 / ref=3 / deblock=1:0:0 / analyse=0x3:0x113 / me=hex / subme=7 / psy=1 / psy_rd=1.00:0.00 / mixed_ref=1 / me_range=16 / chroma_me=1 / trellis=1 / 8x8dct=1 / cqm=0 / deadzone=21,11 / fast_pskip=1 / chroma_qp_offset=-2 / threads=12 / lookahead_threads=2 / sliced_threads=0 / nr=0 / decimate=1 / interlaced=0 / bluray_compat=0 / constrained_intra=0 / bframes=3 / b_pyramid=2 / b_adapt=1 / b_bias=0 / direct=1 / weightb=1 / open_gop=0 / weightp=2 / keyint=240 / keyint_min=24 / scenecut=40 / intra_refresh=0 / rc_lookahead=40 / rc=2pass / mbtree=1 / bitrate=3500 / ratetol=1.0 / qcomp=0.60 / qpmin=0 / qpmax=69 / qpstep=4 / cplxblur=20.0 / qblur=0.5 / vbv_maxrate=62500 / vbv_bufsize=78125 / nal_hrd=none / filler=0 / ip_ratio=1.40 / aq=1:1.00
    Default                                  : Yes
    Forced                                   : No
    Color range                              : Limited
    Color primaries                          : BT.709
    Transfer characteristics                 : BT.709
    Matrix coefficients                      : BT.709
    Statistics Tags Issue                    : mkvmerge v10.0.0 ('To Drown In You') 64bit 2017-09-28 23:13:53 / mkvmerge v10.0.0 ('To Drown In You') 64bit 2017-09-28 23:13:53 / UTC 2017-09-28T04:30:56Z
    FromStats_BitRate                        : 3497708
    FromStats_Duration                       : 01:30:54.366000000
    FromStats_FrameCount                     : 130774
    FromStats_StreamSize                     : 2384722963

    Audio #1
    ID                                       : 2
    Format                                   : AC-3
    Format/Info                              : Audio Coding 3
    Format settings, Endianness              : Big
    Codec ID                                 : A_AC3
    Duration                                 : 1 h 30 min
    Bit rate mode                            : Constant
    Bit rate                                 : 448 kb/s
    Channel(s)                               : 6 channels
    Channel positions                        : Front: L C R, Side: L R, LFE
    Sampling rate                            : 48.0 kHz
    Frame rate                               : 31.250 FPS (1536 SPF)
    Bit depth                                : 16 bits
    Compression mode                         : Lossy
    Delay relative to video                  : -5 ms
    Stream size                              : 291 MiB (10%)
    Language                                 : Spanish
    Service kind                             : Complete Main
    Default                                  : Yes
    Forced                                   : No
    Statistics Tags Issue                    : mkvmerge v10.0.0 ('To Drown In You') 64bit 2017-09-28 23:13:53 / mkvmerge v10.0.0 ('To Drown In You') 64bit 2017-09-28 23:13:53 / UTC 2017-09-28T04:30:56Z
    FromStats_BitRate                        : 448000
    FromStats_Duration                       : 01:29:53.568000000
    FromStats_FrameCount                     : 168549
    FromStats_StreamSize                     : 302039808

    Audio #2
    ID                                       : 3
    Format                                   : AC-3
    Format/Info                              : Audio Coding 3
    Format settings, Endianness              : Big
    Codec ID                                 : A_AC3
    Duration                                 : 1 h 30 min
    Bit rate mode                            : Constant
    Bit rate                                 : 384 kb/s
    Channel(s)                               : 6 channels
    Channel positions                        : Front: L C R, Side: L R, LFE
    Sampling rate                            : 48.0 kHz
    Frame rate                               : 31.250 FPS (1536 SPF)
    Bit depth                                : 16 bits
    Compression mode                         : Lossy
    Delay relative to video                  : -5 ms
    Stream size                              : 250 MiB (9%)
    Language                                 : English
    Service kind                             : Complete Main
    Default                                  : No
    Forced                                   : No
    Statistics Tags Issue                    : mkvmerge v10.0.0 ('To Drown In You') 64bit 2017-09-28 23:13:53 / mkvmerge v10.0.0 ('To Drown In You') 64bit 2017-09-28 23:13:53 / UTC 2017-09-28T04:30:56Z
    FromStats_BitRate                        : 384000
    FromStats_Duration                       : 01:30:54.336000000
    FromStats_FrameCount                     : 170448
    FromStats_StreamSize                     : 261808128

    Text #1
    ID                                       : 4
    Format                                   : UTF-8
    Codec ID                                 : S_TEXT/UTF8
    Codec ID/Info                            : UTF-8 Plain Text
    Default                                  : Yes
    Forced                                   : No
    Statistics Tags Issue                    : mkvmerge v10.0.0 ('To Drown In You') 64bit 2017-09-28 23:13:53 / mkvmerge v10.0.0 ('To Drown In You') 64bit 2017-09-28 23:13:53 / UTC 2017-09-28T04:30:56Z
    FromStats_BitRate                        : 87
    FromStats_Duration                       : 00:00:10.100000000
    FromStats_FrameCount                     : 1
    FromStats_StreamSize                     : 110

    Text #2
    ID                                       : 5
    Format                                   : UTF-8
    Codec ID                                 : S_TEXT/UTF8
    Codec ID/Info                            : UTF-8 Plain Text
    Language                                 : Spanish
    Default                                  : No
    Forced                                   : No
    Statistics Tags Issue                    : mkvmerge v10.0.0 ('To Drown In You') 64bit 2017-09-28 23:13:53 / mkvmerge v10.0.0 ('To Drown In You') 64bit 2017-09-28 23:13:53 / UTC 2017-09-28T04:30:56Z
    FromStats_BitRate                        : 39
    FromStats_Duration                       : 01:24:48.181000000
    FromStats_FrameCount                     : 907
    FromStats_StreamSize                     : 24852

    Text #3
    ID                                       : 6
    Format                                   : UTF-8
    Codec ID                                 : S_TEXT/UTF8
    Codec ID/Info                            : UTF-8 Plain Text
    Language                                 : English
    Default                                  : No
    Forced                                   : No
    Statistics Tags Issue                    : mkvmerge v10.0.0 ('To Drown In You') 64bit 2017-09-28 23:13:53 / mkvmerge v10.0.0 ('To Drown In You') 64bit 2017-09-28 23:13:53 / UTC 2017-09-28T04:30:56Z
    FromStats_BitRate                        : 103
    FromStats_Duration                       : 01:28:47.289000000
    FromStats_FrameCount                     : 1385
    FromStats_StreamSize                     : 68761

    Menu
    00:00:00.000                             : :00:00:00.000
    00:05:43.677                             : :00:05:43.677
    00:11:56.090                             : :00:11:56.090
    00:15:53.536                             : :00:15:53.536
    00:21:14.565                             : :00:21:14.565
    00:25:53.969                             : :00:25:53.969
    00:31:05.614                             : :00:31:05.614
    00:35:30.795                             : :00:35:30.795
    00:41:01.834                             : :00:41:01.834
    00:47:38.814                             : :00:47:38.814
    00:52:02.745                             : :00:52:02.745
    00:56:02.150                             : :00:56:02.150
    01:03:27.220                             : :01:03:27.220
    01:13:19.645                             : :01:13:19.645
    01:18:24.366                             : :01:18:24.366
    01:25:21.533                             : :01:25:21.533

  • Peso: 2,74 GB

Sinopsis

Descrgar gratis Siete deseos (2017) Unrated Full Latino. Siete deseos es una película dirigida por John R. Leonetti (La máscara, Insidious, Expediente Warren: The Conjuring) y escrita por Barbara Marshall (Terra Nova, Viral) que centra su historia en torno a Claire, una adolescente de 16 años que descubre una caja con poderes mágicos. El misterioso objeto puede conceder a la joven la vida que desea, pero ¿qué precio tiene que pagar por ello?

Ficha técnica

Video trailer de la película

Enlaces de descarga

Rip de Bluray

Descargar Siete deseos (2017) Unrated Full Latino




Aportes de DPeliculasHDmega la pass es:dpeliculashdmega.org Aportes de CinemaniaHD la pass es:cinemaniahdd.com
Guardado en : Fantasía , Suspenso , Terror

Películas relacionadas

descargar Siete deseos (2017) Unrated Full Latino 1080p 1080p gratis, Siete deseos (2017) Unrated Full Latino 1080p mega 1 link, Siete deseos (2017) Unrated Full Latino 1080p pelicula completa, descargar Siete deseos (2017) Unrated Full Latino 1080p gratis en mega.

Siete deseos (2017) Unrated Full Latino pelicula full hd, Siete deseos (2017) Unrated Full Latino mega latino, Siete deseos (2017) Unrated Full Latino 4k latino, Siete deseos (2017) Unrated Full Latino pelicula completa, Siete deseos (2017) Unrated Full Latino descargar gratis, descargar Siete deseos (2017) Unrated Full Latino pelicula latino, Siete deseos (2017) Unrated Full Latino 1 link mega, Siete deseos (2017) Unrated Full Latino 1 link google drive, Siete deseos (2017) Unrated Full Latino hd 1080p latino.
Comentarios 4
  • Thomas - 29 septiembre, 2017

    A cuantos Delay se pudo solucionar el audio? gracias de ante mano..

    • dpelis - 30 septiembre, 2017

      bajar de nuevo poqr el audio era de dvd version normal y me confundi, le agregamos audio bluray

  • GENARO - 29 septiembre, 2017

    el audio esta defasdo

    • deps dpelis - 29 septiembre, 2017

      ya se arreglo