Siete almas (2008) Full 1080p Latino

2.609 vistas
1 estrella2 estrellas3 estrellas4 estrellas5 estrellas (Ninguna valoración todavía)
Cargando…

Información de Siete almas (2008) Full 1080p Latino

Datos de la película

  • Calidad: Full 1080p
  • Audio: Español Latino AC3 5.1 BLURAY - Ingles AC3 5.1 BLURAY
  • Subtitulos: Español Latino SRT
  • Resolución: 1920X1080
  • Formato: MKV
  • Codec: H.264
  • Encoder: Dpelis
  • Mediainfo: Clic para Mostrar Datos Ver
  • Format                                   : Matroska
    Format version                           : Version 4 / Version 2
    File size                                : 7.88 GiB
    Duration                                 : 2 h 3 min
    Overall bit rate                         : 9 167 kb/s
    Movie name                               : dpeliculashdmega.org
    Encoded date                             : UTC 2017-11-08 02:35:34 / UTC 2017-11-07T20:36:28Z
    Writing application                      : mkvmerge v15.0.0 ('Duel with the Devil') 64-bit
    Writing library                          : libebml v1.3.5 + libmatroska v1.4.5 / Lavf57.7.2

    Video
    ID                                       : 1
    Format                                   : AVC
    Format/Info                              : Advanced Video Codec
    Format profile                           : High@L4.1
    Format settings                          : CABAC / 4 Ref Frames
    Format settings, CABAC                   : Yes
    Format settings, RefFrames               : 4 frames
    Codec ID                                 : V_MPEG4/ISO/AVC
    Duration                                 : 2 h 3 min
    Bit rate                                 : 7 897 kb/s
    Width                                    : 1 920 pixels
    Height                                   : 1 080 pixels
    Display aspect ratio                     : 16:9
    Frame rate mode                          : Constant
    Frame rate                               : 23.976 (24000/1001) FPS
    Color space                              : YUV
    Chroma subsampling                       : 4:2:0
    Bit depth                                : 8 bits
    Scan type                                : Progressive
    Bits/(Pixel*Frame)                       : 0.159
    Stream size                              : 6.79 GiB (86%)
    Title                                    : Siete almas (2008) Full 1080p Latino
    Writing library                          : x264 core 148 r2708 86b7198
    Encoding settings                        : cabac=1 / ref=4 / deblock=1:0:0 / analyse=0x3:0x133 / me=esa / subme=10 / psy=1 / psy_rd=1.00:0.00 / mixed_ref=1 / me_range=24 / chroma_me=1 / trellis=2 / 8x8dct=1 / cqm=0 / deadzone=21,11 / fast_pskip=1 / chroma_qp_offset=-2 / threads=34 / lookahead_threads=5 / sliced_threads=0 / nr=0 / decimate=1 / interlaced=0 / bluray_compat=0 / constrained_intra=0 / bframes=8 / b_pyramid=2 / b_adapt=2 / b_bias=0 / direct=3 / weightb=1 / open_gop=0 / weightp=2 / keyint=240 / keyint_min=24 / scenecut=40 / intra_refresh=0 / rc_lookahead=60 / rc=crf / mbtree=1 / crf=20.0 / qcomp=0.60 / qpmin=0 / qpmax=69 / qpstep=4 / vbv_maxrate=62500 / vbv_bufsize=78125 / crf_max=0.0 / nal_hrd=none / filler=0 / ip_ratio=1.40 / aq=1:1.00
    Language                                 : English
    Default                                  : Yes
    Forced                                   : No
    Color range                              : Limited
    Color primaries                          : BT.709
    Transfer characteristics                 : BT.709
    Matrix coefficients                      : BT.709
    Statistics Tags Issue                    : mkvmerge v15.0.0 ('Duel with the Devil') 64-bit 2017-11-08 02:35:34 / mkvmerge v15.0.0 ('Duel with the Devil') 64-bit 2017-11-08 02:35:34 / UTC 2017-11-07T20:36:28Z
    FromStats_BitRate                        : 8076996
    FromStats_Duration                       : 02:03:05.420000000
    FromStats_FrameCount                     : 177073
    FromStats_StreamSize                     : 7456501894

    Audio #1
    ID                                       : 2
    Format                                   : AC-3
    Format/Info                              : Audio Coding 3
    Format settings, Endianness              : Big
    Codec ID                                 : A_AC3
    Duration                                 : 2 h 3 min
    Bit rate mode                            : Constant
    Bit rate                                 : 448 kb/s
    Channel(s)                               : 6 channels
    Channel positions                        : Front: L C R, Side: L R, LFE
    Sampling rate                            : 48.0 kHz
    Frame rate                               : 31.250 FPS (1536 SPF)
    Bit depth                                : 16 bits
    Compression mode                         : Lossy
    Stream size                              : 394 MiB (5%)
    Title                                    : Latino-AC3
    Language                                 : Spanish
    Service kind                             : Complete Main
    Default                                  : Yes
    Forced                                   : No
    Statistics Tags Issue                    : mkvmerge v15.0.0 ('Duel with the Devil') 64-bit 2017-11-08 02:35:34 / mkvmerge v15.0.0 ('Duel with the Devil') 64-bit 2017-11-08 02:35:34 / UTC 2017-11-07T20:36:28Z
    FromStats_BitRate                        : 448000
    FromStats_Duration                       : 02:03:05.440000000
    FromStats_FrameCount                     : 230795
    FromStats_StreamSize                     : 413584640

    Audio #2
    ID                                       : 3
    Format                                   : AC-3
    Format/Info                              : Audio Coding 3
    Format settings, Endianness              : Big
    Codec ID                                 : A_AC3
    Duration                                 : 2 h 3 min
    Bit rate mode                            : Constant
    Bit rate                                 : 640 kb/s
    Channel(s)                               : 6 channels
    Channel positions                        : Front: L C R, Side: L R, LFE
    Sampling rate                            : 48.0 kHz
    Frame rate                               : 31.250 FPS (1536 SPF)
    Bit depth                                : 16 bits
    Compression mode                         : Lossy
    Stream size                              : 563 MiB (7%)
    Title                                    : Ingles-AC3
    Language                                 : English
    Service kind                             : Complete Main
    Default                                  : No
    Forced                                   : No
    Statistics Tags Issue                    : mkvmerge v15.0.0 ('Duel with the Devil') 64-bit 2017-11-08 02:35:34 / mkvmerge v15.0.0 ('Duel with the Devil') 64-bit 2017-11-08 02:35:34 / UTC 2017-11-07T20:36:28Z
    FromStats_BitRate                        : 640000
    FromStats_Duration                       : 02:03:05.440000000
    FromStats_FrameCount                     : 230795
    FromStats_StreamSize                     : 590835200

    Text
    ID                                       : 4
    Format                                   : UTF-8
    Codec ID                                 : S_TEXT/UTF8
    Codec ID/Info                            : UTF-8 Plain Text
    Title                                    : Español
    Language                                 : Spanish
    Default                                  : No
    Forced                                   : No
    Statistics Tags Issue                    : mkvmerge v15.0.0 ('Duel with the Devil') 64-bit 2017-11-08 02:35:34 / mkvmerge v15.0.0 ('Duel with the Devil') 64-bit 2017-11-08 02:35:34 / UTC 2017-11-07T20:36:28Z
    FromStats_BitRate                        : 33
    FromStats_Duration                       : 01:55:46.990000000
    FromStats_FrameCount                     : 861
    FromStats_StreamSize                     : 29082

    Menu
    00:00:00.000                             : :00:00:00.000
    00:08:13.743                             : :00:08:13.743
    00:16:25.860                             : :00:16:25.860
    00:20:11.335                             : :00:20:11.335
    00:28:43.347                             : :00:28:43.347
    00:33:11.990                             : :00:33:11.990
    00:37:54.564                             : :00:37:54.481
    00:43:40.243                             : :00:43:40.243
    00:51:21.412                             : :00:51:21.412
    00:57:25.317                             : :00:57:25.317
    01:04:44.005                             : :01:04:44.005
    01:12:50.449                             : :01:12:50.449
    01:20:27.364                             : :01:20:27.364
    01:27:42.007                             : :01:27:42.007
    01:37:24.839                             : :01:37:24.839
    01:45:52.304                             : :01:45:52.263

  • Peso: 7.88 GiB

Sinopsis

Ben Thomas es un inspector de Hacienda que comienza a contactar con determinadas personas con la aparente intención de ayudarles, a todos de diferentes maneras, sin que sepamos bien ni sus razones ni sus objetivos. Aparentemente Ben tiene un plan, pero cuando conoce a una de esas personas, la atractiva Emily, comienza a sentir algo por ella, complicándose sus misteriosos planes.

Ficha técnica

Video trailer de la película

Enlaces de descarga

Rip de Bluray

Descargar Siete almas (2008) Full 1080p Latino




Aportes de DPeliculasHDmega la pass es:dpeliculashdmega.org Aportes de CinemaniaHD la pass es:cinemaniahdd.com
Guardado en : Drama , FULL 1080p Plateadas

Películas relacionadas

  • Arrow (2018) Temporada 07 AMZN Web-DL 1080p Latino

    2012
    Arrow (2018) Temporada 07 AMZN Web-DL 1080p Latino

    2.7 0h 42m 2012

    Descargar Arrow Temporada 07 AMZN Web-DL 1080p Latino; Mega, Google Drive. No ha habido escasez de llamadas...

    Director: Marc Guggenheim

    Género: Action & Adventure

    Actores: Stephen Amell

  • Tiger (2018) 1080p Latino

    2018
    Tiger (2018) 1080p Latino

    1.0 1h 40m 2018

    Descargar Tiger (2018) 1080p Latino, Mega, Google Drive. Tiger se inspira en la historia real de Pardeep...

    Director: Alister Grierson

    Género: Drama

    Actores: Prem Singh

  • Mi cena con Hervé (2018) Web-DL AMZN 1080p Latino

    2018
    Mi cena con Hervé (2018) Web-DL AMZN 1080p Latino

    5.0 1h 50m 2018

    Descargar Mi cena con Hervé (2018) Web-DL AMZN 1080p Latino, Mega, Google Drive. Biopic sobre el actor...

    Director: Sacha Gervasi

    Género: Drama

    Actores: Wallace Langham

Comentarios 0