Siempre Bruja (2019) Temporada 1 NF 1080p Latino

646 vistas
1 estrella2 estrellas3 estrellas4 estrellas5 estrellas (1 votos, promedio: 1,00 de 5)
Cargando…

Información de Siempre Bruja (2019) Temporada 1 NF 1080p Latino

Datos de la película

  • Calidad: WEBDL
  • Audio: Español Latino AC3 5.1 Netflix - Ingles AC3 5.1 Netflix
  • Subtitulos: Español Latino SRT - Ingles SRT
  • Resolución: 1920x1080
  • Formato: MKV
  • Codec: H.264
  • Encoder: cinemaniahd
  • Mediainfo: Clic para Mostrar Datos Ver
  • Siempre bruja S01E09 NF 1080p Latino.mkv
    Format                      : Matroska
    Format version              : Version 4
    File size                   : 2.09 GiB
    Duration                    : 38 min 54 s
    Overall bit rate mode       : Variable
    Overall bit rate            : 7 682 kb/s
    Movie name                  : Siempre bruja S01E09
    Encoded date                : UTC 2019-02-02 00:04:04 / UTC 2019-01-17 18:19:33
    Writing application         : mkvmerge v30.1.0 ('Forever And More') 64-bit
    Writing library             : libebml v1.3.6 + libmatroska v1.4.9 / Lavf58.0.0

    Video
    ID                          : 1
    Format                      : AVC
    Format/Info                 : Advanced Video Codec
    Format profile              : [email protected]
    Format settings             : CABAC / 3 Ref Frames
    Format settings, CABAC      : Yes
    Format settings, ReFrames   : 3 frames
    Codec ID                    : V_MPEG4/ISO/AVC
    Duration                    : 38 min 54 s
    Bit rate mode               : Variable
    Bit rate                    : 6 761 kb/s
    Nominal bit rate            : 7 150 kb/s
    Maximum bit rate            : 10.7 Mb/s
    Width                       : 1 920 pixels
    Height                      : 1 080 pixels
    Display aspect ratio        : 16:9
    Frame rate mode             : Constant
    Frame rate                  : 23.976 (24000/1001) FPS
    Color space                 : YUV
    Chroma subsampling          : 4:2:0
    Bit depth                   : 8 bits
    Scan type                   : Progressive
    Bits/(Pixel*Frame)          : 0.136
    Stream size                 : 1.84 GiB (88%)
    Title                       : cinemaniahdd
    Writing library             : x264 core 148 r2715 7e75228
    Encoding settings           : cabac=1 / ref=3 / deblock=1:0:0 / analyse=0x1:0x111 / me=umh / subme=10 / psy=1 / psy_rd=1.00:0.00 / mixed_ref=1 / me_range=24 / chroma_me=1 / trellis=2 / 8x8dct=0 / cqm=0 / deadzone=21,11 / fast_pskip=1 / chroma_qp_offset=-2 / threads=6 / lookahead_threads=1 / sliced_threads=0 / nr=0 / decimate=1 / interlaced=0 / bluray_compat=0 / stitchable=1 / constrained_intra=0 / bframes=2 / b_pyramid=0 / b_adapt=2 / b_bias=0 / direct=3 / weightb=1 / open_gop=0 / weightp=2 / keyint=48 / keyint_min=25 / scenecut=0 / intra_refresh=0 / rc_lookahead=48 / rc=2pass / mbtree=1 / bitrate=7150 / ratetol=1.0 / qcomp=0.50 / qpmin=6 / qpmax=51 / qpstep=4 / cplxblur=20.0 / qblur=0.5 / vbv_maxrate=10725 / vbv_bufsize=14300 / nal_hrd=vbr / filler=0 / ip_ratio=1.40 / aq=1:1.00
    Default                     : Yes
    Forced                      : No
    Statistics Tags Issue       : mkvmerge v30.1.0 ('Forever And More') 64-bit 2019-02-02 00:04:04 / mkvmerge v30.1.0 ('Forever And More') 64-bit 2019-02-02 00:04:04 / UTC 2019-01-17 18:19:33
    FromStats_BitRate           : 6912424
    FromStats_Duration          : 00:38:54.416000000
    FromStats_FrameCount        : 55970
    FromStats_StreamSize        : 2017059163

    Audio #1
    ID                          : 2
    Format                      : AC-3
    Format/Info                 : Audio Coding 3
    Commercial name             : Dolby Digital
    Codec ID                    : A_AC3
    Duration                    : 38 min 54 s
    Bit rate mode               : Constant
    Bit rate                    : 384 kb/s
    Channel(s)                  : 6 channels
    Channel layout              : L R C LFE Ls Rs
    Sampling rate               : 48.0 kHz
    Frame rate                  : 31.250 FPS (1536 SPF)
    Bit depth                   : 16 bits
    Compression mode            : Lossy
    Stream size                 : 107 MiB (5%)
    Title                       : Español latino [cinemaniahdd]
    Language                    : Spanish
    Service kind                : Complete Main
    Default                     : Yes
    Forced                      : No
    Encoded date                : UTC 2019-01-15 23:36:11
    Statistics Tags Issue       : mkvmerge v30.1.0 ('Forever And More') 64-bit 2019-02-02 00:04:04 / mkvmerge v30.1.0 ('Forever And More') 64-bit 2019-02-02 00:04:04 / UTC 2019-01-17 18:19:33
    FromStats_BitRate           : 384000
    FromStats_Duration          : 00:38:54.752000000
    FromStats_FrameCount        : 72961
    FromStats_StreamSize        : 112068096

    Audio #2
    ID                          : 3
    Format                      : AC-3
    Format/Info                 : Audio Coding 3
    Commercial name             : Dolby Digital
    Codec ID                    : A_AC3
    Duration                    : 38 min 54 s
    Bit rate mode               : Constant
    Bit rate                    : 384 kb/s
    Channel(s)                  : 6 channels
    Channel layout              : L R C LFE Ls Rs
    Sampling rate               : 48.0 kHz
    Frame rate                  : 31.250 FPS (1536 SPF)
    Bit depth                   : 16 bits
    Compression mode            : Lossy
    Stream size                 : 107 MiB (5%)
    Title                       : Inglés [cinemaniahdd]
    Language                    : English
    Service kind                : Complete Main
    Default                     : No
    Forced                      : No
    Encoded date                : UTC 2019-01-17 18:19:33
    Statistics Tags Issue       : mkvmerge v30.1.0 ('Forever And More') 64-bit 2019-02-02 00:04:04 / mkvmerge v30.1.0 ('Forever And More') 64-bit 2019-02-02 00:04:04 / UTC 2019-01-17 18:19:33
    FromStats_BitRate           : 384000
    FromStats_Duration          : 00:38:54.752000000
    FromStats_FrameCount        : 72961
    FromStats_StreamSize        : 112068096

    Text #1
    ID                          : 4
    Format                      : UTF-8
    Codec ID                    : S_TEXT/UTF8
    Codec ID/Info               : UTF-8 Plain Text
    Title                       : Inglés [cinemaniahdd]
    Language                    : English
    Default                     : No
    Forced                      : No
    Statistics Tags Issue       : mkvmerge v30.1.0 ('Forever And More') 64-bit 2019-02-02 00:04:04 / mkvmerge v30.1.0 ('Forever And More') 64-bit 2019-02-02 00:04:04 / UTC 2019-01-17 18:19:33
    FromStats_BitRate           : 65
    FromStats_Duration          : 00:36:35.110000000
    FromStats_FrameCount        : 533
    FromStats_StreamSize        : 18011

    Text #2
    ID                          : 5
    Format                      : UTF-8
    Codec ID                    : S_TEXT/UTF8
    Codec ID/Info               : UTF-8 Plain Text
    Title                       : Español latino [cinemaniahdd]
    Language                    : Spanish
    Default                     : No
    Forced                      : No
    Statistics Tags Issue       : mkvmerge v30.1.0 ('Forever And More') 64-bit 2019-02-02 00:04:04 / mkvmerge v30.1.0 ('Forever And More') 64-bit 2019-02-02 00:04:04 / UTC 2019-01-17 18:19:33
    FromStats_BitRate           : 73
    FromStats_Duration          : 00:36:43.618000000
    FromStats_FrameCount        : 618
    FromStats_StreamSize        : 20158

  • Peso: 2.09 GiB por Capitulo

Sinopsis

Siempre bruja es una serie colombiana que se centra en la historia de Carmen, una joven esclava y bruja colombiana del siglo XVIII. La joven viaja en el tiempo hasta la ciudad de Cartagena actual para así poder ayudar a su amado. Carmen hace todo lo posible para adaptarse a la vida del mundo moderno, pero no se puede dejar de ser bruja fácilmente.

Esta ficción está por Ana María Parra (La Nocturna) y Diego Vivanco (A mano limpia) siguiendo el hilo de la novela Yo, bruja de Isidora Chacón. La dirección corre a cargo de los directores de La esclava blanca, Liliana Bocanegra y Mateo Stivelberg. El elenco de protagonistas se compone de Angely Gaviria (2091), Valeria Emiliani (La cacica), Sofia Araujo (Río de pasiones) y el youtuber Dylan Fuentes, entre otros. Es una producción de Caracol Televisión junto a Dago García.

Ficha técnica

Video trailer de la película

Enlaces de descarga

Rip de Bluray

Descargar Siempre Bruja (2019) Temporada 1 NF 1080p Latino




Aportes de DPeliculasHDmega la pass es:dpeliculashdmega.org Aportes de CinemaniaHD la pass es:cinemaniahdd.com
Guardado en : Drama , Sci-Fi & Fantasy , Series

Películas relacionadas

  • Native Son (2019) AMZN WEB-DL 1080p Latino

    2019
    Native Son (2019) AMZN WEB-DL 1080p Latino

    4.0 1h 50m 2019

    Bigger “Big” Thomas (Ashton Sanders) es un joven afroamericano que vive con su madre y hermanos en...

    Director: Rashid Johnson

    Género: Drama

    Actores: Stephen Henderson

  • Dragged Across Concrete (2018) WEB-DL Latino

    2019
    Dragged Across Concrete (2018) WEB-DL Latino

    0.0 2h 39m 2019

    Las películas de S. Craig Zahler se cuecen a fuego lento. Sin embargo, su carrera es fulgurante: ya...

    Director: Sam Harris

    Género: Acción

    Actores: Vivian Ng

  • Miss Bala (2019) WEB-DL 1080p Latino

    2019
    Miss Bala (2019) WEB-DL 1080p Latino

    0.0 1h 44m 2019

    La ganadora de un concurso de belleza se ve obligada a trabajar para un jefe del crimen después de ser...

    Director: Catherine Hardwicke

    Género: Acción

    Actores: Roberto Sosa

  • Amigos por Siempre (2019) WEB-DL 1080p Latino

    2019
    Amigos por Siempre (2019) WEB-DL 1080p Latino

    0.0 2h 3m 2019

    Remake norteamericano del gran éxito del cine francés "Intocable" (2011), que aborda la relación que...

    Director: Neil Burger

    Género: Comedia

    Actores: Ursula Triplett

Comentarios 0