Siberia (2018) 1080p Latino

1.053 vistas
1 estrella2 estrellas3 estrellas4 estrellas5 estrellas (3 votos, promedio: 4,67 de 5)
Cargando…

Información de Siberia (2018) 1080p Latino

Datos de la película

  • Calidad: 1080p
  • Audio: Español Latino AC3 2.0 iTUNES - Ingles AC3 5.1 BLURAY
  • Subtitulos: Español Latino SRT
  • Resolución: 1920x804
  • Formato: MKV
  • Codec: H.264
  • Encoder: CinefiloCool
  • Mediainfo: Clic para Mostrar Datos Ver
  • Format                      : Matroska
    Format version              : Version 4 / Version 2
    File size                   : 3.01 GiB
    Duration                    : 1 h 44 min
    Overall bit rate            : 4 111 kb/s
    Movie name                  : CinemaniaHDD.net
    Encoded date                : UTC 2018-10-02 03:18:44 / UTC 2018-10-02T01:24:40Z
    Writing application         : mkvmerge v25.0.0 ('Prog Noir') 64-bit
    Writing library             : libebml v1.3.6 + libmatroska v1.4.9 / Lavf57.7.2

    Video
    ID                          : 1
    Format                      : AVC
    Format/Info                 : Advanced Video Codec
    Format profile              : High@L4.1
    Format settings             : CABAC / 5 Ref Frames
    Format settings, CABAC      : Yes
    Format settings, RefFrames  : 5 frames
    Codec ID                    : V_MPEG4/ISO/AVC
    Duration                    : 1 h 44 min
    Bit rate                    : 3 325 kb/s
    Nominal bit rate            : 3 500 kb/s
    Width                       : 1 920 pixels
    Height                      : 804 pixels
    Display aspect ratio        : 2.40:1
    Frame rate mode             : Constant
    Frame rate                  : 23.976 (24000/1001) FPS
    Color space                 : YUV
    Chroma subsampling          : 4:2:0
    Bit depth                   : 8 bits
    Scan type                   : Progressive
    Bits/(Pixel*Frame)          : 0.090
    Stream size                 : 2.43 GiB (81%)
    Title                       : HD1080p [Bluray]
    Writing library             : x264 core 155 r2893 b00bcaf
    Encoding settings           : cabac=1 / ref=5 / deblock=1:0:0 / analyse=0x3:0x113 / me=hex / subme=8 / psy=1 / psy_rd=1.00:0.00 / mixed_ref=1 / me_range=16 / chroma_me=1 / trellis=2 / 8x8dct=1 / cqm=0 / deadzone=21,11 / fast_pskip=1 / chroma_qp_offset=-2 / threads=25 / lookahead_threads=4 / sliced_threads=0 / nr=0 / decimate=1 / interlaced=0 / bluray_compat=0 / constrained_intra=0 / bframes=3 / b_pyramid=2 / b_adapt=1 / b_bias=0 / direct=3 / weightb=1 / open_gop=0 / weightp=2 / keyint=240 / keyint_min=24 / scenecut=40 / intra_refresh=0 / rc_lookahead=50 / rc=abr / mbtree=1 / bitrate=3500 / ratetol=1.0 / qcomp=0.60 / qpmin=0 / qpmax=69 / qpstep=4 / vbv_maxrate=62500 / vbv_bufsize=78125 / nal_hrd=none / filler=0 / ip_ratio=1.40 / aq=1:1.00
    Default                     : Yes
    Forced                      : No
    Color range                 : Limited
    Color primaries             : BT.709
    Transfer characteristics    : BT.709
    Matrix coefficients         : BT.709
    Statistics Tags Issue       : mkvmerge v25.0.0 ('Prog Noir') 64-bit 2018-10-02 03:18:44 / mkvmerge v25.0.0 ('Prog Noir') 64-bit 2018-10-02 03:18:44 / UTC 2018-10-02T01:24:40Z
    FromStats_BitRate           : 3404702
    FromStats_Duration          : 01:44:42.318000000
    FromStats_FrameCount        : 150625
    FromStats_StreamSize        : 2673677931

    Audio #1
    ID                          : 2
    Format                      : AC-3
    Format/Info                 : Audio Coding 3
    Format settings, Endianness : Big
    Codec ID                    : A_AC3
    Duration                    : 1 h 44 min
    Bit rate mode               : Constant
    Bit rate                    : 256 kb/s
    Channel(s)                  : 2 channels
    Channel positions           : Front: L R
    Sampling rate               : 48.0 kHz
    Frame rate                  : 31.250 FPS (1536 SPF)
    Bit depth                   : 16 bits
    Compression mode            : Lossy
    Delay relative to video     : -5 ms
    Stream size                 : 192 MiB (6%)
    Title                       : AC3_2.0_Itunes_Esp
    Language                    : Spanish
    Service kind                : Complete Main
    Default                     : Yes
    Forced                      : Yes
    Statistics Tags Issue       : mkvmerge v25.0.0 ('Prog Noir') 64-bit 2018-10-02 03:18:44 / mkvmerge v25.0.0 ('Prog Noir') 64-bit 2018-10-02 03:18:44 / UTC 2018-10-02T01:24:40Z
    FromStats_BitRate           : 256000
    FromStats_Duration          : 01:44:42.368000000
    FromStats_FrameCount        : 196324
    FromStats_StreamSize        : 201035776

    Audio #2
    ID                          : 3
    Format                      : AC-3
    Format/Info                 : Audio Coding 3
    Format settings, Endianness : Big
    Codec ID                    : A_AC3
    Duration                    : 1 h 44 min
    Bit rate mode               : Constant
    Bit rate                    : 448 kb/s
    Channel(s)                  : 6 channels
    Channel positions           : Front: L C R, Side: L R, LFE
    Sampling rate               : 48.0 kHz
    Frame rate                  : 31.250 FPS (1536 SPF)
    Bit depth                   : 16 bits
    Compression mode            : Lossy
    Stream size                 : 336 MiB (11%)
    Title                       : AC3_5.1_Bluray_Eng
    Language                    : English
    Service kind                : Complete Main
    Default                     : No
    Forced                      : No
    Statistics Tags Issue       : mkvmerge v25.0.0 ('Prog Noir') 64-bit 2018-10-02 03:18:44 / mkvmerge v25.0.0 ('Prog Noir') 64-bit 2018-10-02 03:18:44 / UTC 2018-10-02T01:24:40Z
    FromStats_BitRate           : 448000
    FromStats_Duration          : 01:44:42.304000000
    FromStats_FrameCount        : 196322
    FromStats_StreamSize        : 351809024

    Text
    ID                          : 4
    Format                      : UTF-8
    Codec ID                    : S_TEXT/UTF8
    Codec ID/Info               : UTF-8 Plain Text
    Title                       : Sub_Esp
    Language                    : Spanish
    Default                     : No
    Forced                      : No
    Statistics Tags Issue       : mkvmerge v25.0.0 ('Prog Noir') 64-bit 2018-10-02 03:18:44 / mkvmerge v25.0.0 ('Prog Noir') 64-bit 2018-10-02 03:18:44 / UTC 2018-10-02T01:24:40Z
    FromStats_BitRate           : 37
    FromStats_Duration          : 01:38:16.659000000
    FromStats_FrameCount        : 879
    FromStats_StreamSize        : 27539

  • Peso: 3.01 GiB

Sinopsis

Siberia (2018) 1080p Latino. Mega, Google Drive. Cuando el socio ruso de un tratante de diamantes norteamericano (Keanu Reaves) desaparece, éste viaja a Siberia en su búsqueda, donde conoce a Katya (Ana Ularu), la joven propietaria de un café.

Ficha técnica

Video trailer de la película

Enlaces de descarga

Rip de Bluray

Descargar Siberia (2018) 1080p Latino




Aportes de DPeliculasHDmega la pass es:dpeliculashdmega.org Aportes de CinemaniaHD la pass es:cinemaniahdd.com
Guardado en : Crimen , HD 1080p , Romance , Suspense

Películas relacionadas

  • Calibre (2018) Web-DL 1080p Latino

    2018
    Calibre (2018) Web-DL 1080p Latino

    0.0 1h 41m 2018

    Descargar Calibre (2018) Web-DL 1080p Latino, Mega, Google Drive. Durante un fin de semana en los highland...

    Director: Matt Palmer

    Género: Suspense

    Actores: Tony Curran

  • Cam (2018) NF 1080p Latino

    2018
    Cam (2018) NF 1080p Latino

    0.0 1h 34m 2018

    Alice es una camgirl con un código inamovible, que le permite mantener una cierta distancia con los...

    Director: Rachel Penner

    Género: Suspense

    Actores: Samantha Robinson

  • Cambio de princesa (2018) NF 1080p Latino

    2018
    Cambio de princesa (2018) NF 1080p Latino

    0.0 1h 41m 2018

    Una repostera de Chicago y una futura princesa descubren que parecen gemelas, así que idean un plan...

    Director: Mike Rohl

    Género: Comedia

    Actores: Vanessa Hudgens

  • El Justiciero 2 (2018) Full 1080p Latino

    2018
    El Justiciero 2 (2018) Full 1080p Latino

    5.0 2h 0m 2018

    Descargar El Justiciero 2 (2018) Full 1080p Latino, Mega, Google Drive. Robert McCall (Denzel Washington)...

    Director: Donald Sparks

    Género: Acción

    Actores: Wesley Pereira

Comentarios 0