×

¿Problemas para descargar con Mozilla, EDGE? Deshabilita la opción "Abrir vinculos en una pestaña nueva" tal como lo muestra ésta imagen.

Si Tuviera 70 (2022) REMUX 1080p Latino

158 vistas

Información de Si Tuviera 70 (2022) REMUX 1080p Latino

Datos de la película

  • Calidad: Full 1080p
  • Audio: Español Latino AC3 5.1 WEB-DL - Ingles DTS 5.1 BLURAY
  • Subtitulos: Español Latino PGS - Ingles PGS
  • Resolución: 1920x1080p
  • Formato: MKV
  • Codec: H.264
  • Encoder: Melkor
  • Mediainfo: Clic para Mostrar Datos Ver
  • Si Tuviera 70 (2022) REMUX 1080p Latino.mkv
    Format                      : Matroska
    Format version              : Version 4
    File size                   : 18.0 GiB
    Duration                    : 1 h 34 min
    Overall bit rate mode       : Variable
    Overall bit rate            : 27.2 Mb/s
    Movie name                  : Mack & Rita (2022) CinemaniaHDD.Net
    Encoded date                : UTC 2023-03-28 07:10:48
    Writing application         : mkvmerge v56.1.0 ('My Friend') 64-bit
    Writing library             : libebml v1.4.2 + libmatroska v1.6.4
    Attachments                 : CINEMANIAHD.png
    Site                        : CinemaniaHDD.Net
    Uploader                    : Melkor

    Video
    ID                          : 1
    Format                      : AVC
    Format/Info                 : Advanced Video Codec
    Format profile              : High@L4.1
    Format settings             : CABAC / 4 Ref Frames
    Format settings, CABAC      : Yes
    Format settings, Reference  : 4 frames
    Codec ID                    : V_MPEG4/ISO/AVC
    Duration                    : 1 h 34 min
    Bit rate mode               : Variable
    Bit rate                    : 23.0 Mb/s
    Maximum bit rate            : 35.0 Mb/s
    Width                       : 1 920 pixels
    Height                      : 1 080 pixels
    Display aspect ratio        : 16:9
    Frame rate mode             : Constant
    Frame rate                  : 23.976 (24000/1001) FPS
    Standard                    : NTSC
    Color space                 : YUV
    Chroma subsampling          : 4:2:0
    Bit depth                   : 8 bits
    Scan type                   : Progressive
    Bits/(Pixel*Frame)          : 0.462
    Stream size                 : 15.2 GiB (84%)
    Title                       : REMUX HD1080p [CinemaniaHDD]
    Default                     : Yes
    Forced                      : Yes
    Color range                 : Limited
    Color primaries             : BT.709
    Transfer characteristics    : BT.709
    Matrix coefficients         : BT.709

    Audio #1
    ID                          : 2
    Format                      : AC-3
    Format/Info                 : Audio Coding 3
    Commercial name             : Dolby Digital
    Codec ID                    : A_AC3
    Duration                    : 1 h 34 min
    Bit rate mode               : Constant
    Bit rate                    : 640 kb/s
    Channel(s)                  : 6 channels
    Channel layout              : L R C LFE Ls Rs
    Sampling rate               : 48.0 kHz
    Frame rate                  : 31.250 FPS (1536 SPF)
    Compression mode            : Lossy
    Stream size                 : 434 MiB (2%)
    Title                       : Español Latino [CinemaniaHDD]
    Language                    : Spanish
    Service kind                : Complete Main
    Default                     : Yes
    Forced                      : Yes

    Audio #2
    ID                          : 3
    Format                      : DTS XLL
    Format/Info                 : Digital Theater Systems
    Commercial name             : DTS-HD Master Audio
    Codec ID                    : A_DTS
    Duration                    : 1 h 34 min
    Bit rate mode               : Variable
    Bit rate                    : 3 537 kb/s
    Channel(s)                  : 6 channels
    Channel layout              : C L R Ls Rs LFE
    Sampling rate               : 48.0 kHz
    Frame rate                  : 93.750 FPS (512 SPF)
    Bit depth                   : 24 bits
    Compression mode            : Lossless
    Stream size                 : 2.34 GiB (13%)
    Title                       : Ingles [CinemaniaHDD]
    Language                    : English
    Default                     : No
    Forced                      : No

    Text #1
    ID                          : 4
    Format                      : PGS
    Muxing mode                 : zlib
    Codec ID                    : S_HDMV/PGS
    Codec ID/Info               : Picture based subtitle format used on BDs/HD-DVDs
    Duration                    : 1 h 33 min
    Bit rate                    : 46.0 kb/s
    Count of elements           : 3042
    Stream size                 : 30.6 MiB (0%)
    Title                       : Español-PGS [CinemaniaHDD]
    Language                    : Spanish
    Default                     : No
    Forced                      : No

    Text #2
    ID                          : 5
    Format                      : PGS
    Muxing mode                 : zlib
    Codec ID                    : S_HDMV/PGS
    Codec ID/Info               : Picture based subtitle format used on BDs/HD-DVDs
    Duration                    : 1 h 30 min
    Bit rate                    : 59.3 kb/s
    Count of elements           : 3556
    Stream size                 : 38.3 MiB (0%)
    Title                       : Ingles [CinemaniaHDD]
    Language                    : English
    Default                     : No
    Forced                      : No

    Text #3
    ID                          : 6
    Format                      : UTF-8
    Codec ID                    : S_TEXT/UTF8
    Codec ID/Info               : UTF-8 Plain Text
    Duration                    : 1 h 22 min
    Bit rate                    : 0 b/s
    Count of elements           : 16
    Stream size                 : 474 Bytes (0%)
    Title                       : Forzados-SRT [CinemaniaHDD]
    Language                    : Spanish
    Default                     : Yes
    Forced                      : Yes

    Text #4
    ID                          : 7
    Format                      : UTF-8
    Codec ID                    : S_TEXT/UTF8
    Codec ID/Info               : UTF-8 Plain Text
    Duration                    : 1 h 33 min
    Bit rate                    : 77 b/s
    Count of elements           : 1521
    Stream size                 : 53.2 KiB (0%)
    Title                       : Español-SRT [CinemaniaHDD]
    Language                    : Spanish
    Default                     : No
    Forced                      : No

    Menu
    00:00:00.000                : Chapter 01
    00:08:40.520                : Chapter 02
    00:15:34.934                : Chapter 03
    00:23:27.406                : Chapter 04
    00:30:28.827                : Chapter 05
    00:39:15.353                : Chapter 06
    00:47:09.827                : Chapter 07
    00:53:36.213                : Chapter 08
    00:59:37.574                : Chapter 09
    01:06:57.013                : Chapter 10
    01:15:35.531                : Chapter 11
    01:25:32.127                : Chapter 12

  • Peso: 18.0 GiB

Sinopsis

Descargar Si Tuviera 70 (2022) REMUX 1080p Latino. Mackenzie se siente hastiada de hacer todas las cosas que tiene que hacer para estar a la moda y poder llamar la atención a sus 30 años. En secreto le gustaría tener más de 60 años para poder simplemente descansar, relajarse y ponerse un buen jersey de lana sin tener que seguir ninguna tendencia. Pero cuando su sueño se cumple tras una extraño suceso y se convierte en Rita, una mujer de 65 años, Mack descubrirá que la vejez no es exactamente lo que ella imaginaba.

Ficha técnica

Video trailer de la película

Enlaces de descarga

Rip de Bluray

Descargar Si Tuviera 70 (2022) REMUX 1080p Latino




Aportes de DPeliculasHDmega la pass es:dpeliculashdmega.org Aportes de CinemaniaHD la pass es:cinemaniahdd.com Aportes recientes:cinemaniahdd.net
Guardado en : Comedia , Fantasía , Remux

Películas relacionadas

  • Who Invited Charlie? (2023) AMZN WEB-DL 1080p Latino

    Who Invited Charlie? (2023) AMZN WEB-DL 1080p Latino

    2023
    Who Invited Charlie? (2023) AMZN WEB-DL 1080p Latino

    1h 41m 2023

    Phil y su familia buscan refugio en los Hamptons para esquivar la pandemia, pero su paz se acaba con...

    Director: Xavier Manrique

    Género: Comedia

    Actores: Xosha Roquemore

  • Players (2024) NF WEB-DL 1080p Latino

    Players (2024) NF WEB-DL 1080p Latino

    2024
    Players (2024) NF WEB-DL 1080p Latino

    1h 45m 2024

    Descargar Players (2024) NF WEB-DL 1080p Latino. Una periodista deportiva neoyorquina con un ingenioso...

    Director: Trish Sie

    Género: Comedia

    Actores: Veraalba Santa

  • ¡Patos! (2023) HD 1080p Latino

    ¡Patos! (2023) HD 1080p Latino

    2023
    ¡Patos! (2023) HD 1080p Latino

    1h 23m 2023

    Descargar ¡Patos! (2023) HD 1080p Latino. Después de que una familia de patos migratorios aterriza...

    Director: Guy-Laurent Homsy

    Género: Acción

    Actores: Zeno Robinson

descargar Si Tuviera 70 (2022) REMUX 1080p Latino Full 1080p 1080p gratis, Si Tuviera 70 (2022) REMUX 1080p Latino Full 1080p mega 1 link, Si Tuviera 70 (2022) REMUX 1080p Latino Full 1080p pelicula completa, descargar Si Tuviera 70 (2022) REMUX 1080p Latino Full 1080p gratis en mega.

Si Tuviera 70 (2022) REMUX 1080p Latino pelicula full hd, Si Tuviera 70 (2022) REMUX 1080p Latino mega latino, Si Tuviera 70 (2022) REMUX 1080p Latino 4k latino, Si Tuviera 70 (2022) REMUX 1080p Latino pelicula completa, Si Tuviera 70 (2022) REMUX 1080p Latino descargar gratis, descargar Si Tuviera 70 (2022) REMUX 1080p Latino pelicula latino, Si Tuviera 70 (2022) REMUX 1080p Latino 1 link mega, Si Tuviera 70 (2022) REMUX 1080p Latino 1 link google drive, Si Tuviera 70 (2022) REMUX 1080p Latino hd 1080p latino.
Comentarios 0