×

¿Problemas para descargar con Mozilla, EDGE? Deshabilita la opción "Abrir vinculos en una pestaña nueva" tal como lo muestra ésta imagen.

Si Señor (2008) REMUX 1080p Latino – CMHDD

337 vistas

Información de Si Señor (2008) REMUX 1080p Latino – CMHDD

Datos de la película

  • Calidad: Full 1080p
  • Audio: Español Latino AC3 5.1 BLURAY - Ingles AC3 5.1 BLURAY
  • Subtitulos: Español Latino SRT
  • Resolución: 1920x1080p
  • Formato: MKV
  • Codec: H.264
  • Encoder: Dracarys
  • Mediainfo: Clic para Mostrar Datos Ver
  • Format                      : Matroska
    Format version              : Version 4
    File size                   : 17.4 GiB
    Duration                    : 1 h 44 min
    Overall bit rate mode       : Variable
    Overall bit rate            : 23.9 Mb/s
    Movie name                  : Si Señor (2008) REMUX 1080p Latino - CMHDD
    Encoded date                : UTC 2020-05-13 00:46:11
    Writing application         : mkvmerge v46.0.0 ('No Deeper Escape') 64-bit
    Writing library             : libebml v1.3.10 + libmatroska v1.5.2

    Video
    ID                          : 1
    Format                      : VC-1
    Format profile              : Advanced@L3
    Codec ID                    : V_MS/VFW/FOURCC / WVC1
    Codec ID/Hint               : Microsoft
    Duration                    : 1 h 44 min
    Bit rate                    : 21.1 Mb/s
    Width                       : 1 920 pixels
    Height                      : 1 080 pixels
    Display aspect ratio        : 16:9
    Frame rate mode             : Constant
    Frame rate                  : 23.976 (24000/1001) FPS
    Color space                 : YUV
    Chroma subsampling          : 4:2:0
    Bit depth                   : 8 bits
    Scan type                   : Progressive
    Compression mode            : Lossy
    Bits/(Pixel*Frame)          : 0.425
    Stream size                 : 15.4 GiB (89%)
    Language                    : English
    Default                     : Yes
    Forced                      : No

    Audio #1
    ID                          : 2
    Format                      : AC-3
    Format/Info                 : Audio Coding 3
    Commercial name             : Dolby Digital
    Codec ID                    : A_AC3
    Duration                    : 1 h 44 min
    Bit rate mode               : Constant
    Bit rate                    : 448 kb/s
    Channel(s)                  : 6 channels
    Channel layout              : L R C LFE Ls Rs
    Sampling rate               : 48.0 kHz
    Frame rate                  : 31.250 FPS (1536 SPF)
    Compression mode            : Lossy
    Stream size                 : 334 MiB (2%)
    Language                    : Spanish
    Service kind                : Complete Main
    Default                     : Yes
    Forced                      : No

    Audio #2
    ID                          : 3
    Format                      : MLP FBA
    Format/Info                 : Meridian Lossless Packing FBA
    Commercial name             : Dolby TrueHD
    Codec ID                    : A_TRUEHD
    Duration                    : 1 h 44 min
    Bit rate mode               : Variable
    Bit rate                    : 1 556 kb/s
    Maximum bit rate            : 2 871 kb/s
    Channel(s)                  : 6 channels
    Channel layout              : L R C LFE Ls Rs
    Sampling rate               : 48.0 kHz
    Frame rate                  : 1 200.000 FPS (40 SPF)
    Compression mode            : Lossless
    Stream size                 : 1.14 GiB (7%)
    Language                    : English
    Default                     : No
    Forced                      : No

    Audio #3
    ID                          : 4
    Format                      : AC-3
    Format/Info                 : Audio Coding 3
    Commercial name             : Dolby Digital
    Codec ID                    : A_AC3
    Duration                    : 1 h 44 min
    Bit rate mode               : Constant
    Bit rate                    : 640 kb/s
    Channel(s)                  : 6 channels
    Channel layout              : L R C LFE Ls Rs
    Sampling rate               : 48.0 kHz
    Frame rate                  : 31.250 FPS (1536 SPF)
    Compression mode            : Lossy
    Stream size                 : 478 MiB (3%)
    Language                    : English
    Service kind                : Complete Main
    Default                     : No
    Forced                      : No

    Text #1
    ID                          : 5
    Format                      : UTF-8
    Codec ID                    : S_TEXT/UTF8
    Codec ID/Info               : UTF-8 Plain Text
    Duration                    : 1 h 43 min
    Bit rate                    : 57 b/s
    Count of elements           : 1527
    Stream size                 : 43.6 KiB (0%)
    Title                       : SRT
    Language                    : Spanish
    Default                     : No
    Forced                      : No

    Text #2
    ID                          : 6
    Format                      : PGS
    Muxing mode                 : zlib
    Codec ID                    : S_HDMV/PGS
    Codec ID/Info               : Picture based subtitle format used on BDs/HD-DVDs
    Duration                    : 1 h 43 min
    Bit rate                    : 30.5 kb/s
    Count of elements           : 3054
    Stream size                 : 22.7 MiB (0%)
    Title                       : PGS
    Language                    : Spanish
    Default                     : No
    Forced                      : No

    Menu
    00:00:00.000                : en:Otherwise Engaged
    00:04:51.374                : en:Declined
    00:07:44.964                : en:Lonely Guy
    00:13:22.593                : en:Say the Word
    00:19:56.945                : en:Giving a Ride
    00:23:30.826                : en:Getting a Ride
    00:27:32.442                : en:Beyond the Norm
    00:30:48.638                : en:Flight Shlub
    00:36:00.408                : en:Sexual Release
    00:38:58.794                : en:Yes Mania
    00:41:43.667                : en:Munchausen By Proxy
    00:44:38.676                : en:All-Nighter
    00:51:22.496                : en:Potter Party
    00:55:16.604                : en:Going Bowling
    00:59:25.728                : en:Bump My Fist
    01:02:47.722                : en:Getting in Tune
    01:08:15.758                : en:Hello, Nebraska
    01:13:52.010                : en:Not Crazy About Carl
    01:18:50.684                : en:Bad News Breaker
    01:21:40.854                : en:Shower Matchups
    01:26:08.204                : en:Negative Vibe
    01:28:50.992                : en:Free and Wheeling
    01:32:58.239                : en:Scared Together
    01:36:04.759                : en:Barely Willing
    01:36:59.313                : en:End Credits

  • Peso: 17.4 GiB

Sinopsis

Un hombre se reta a sí mismo que dirá «sí» absolutamente a todo. Carl Allen un día se apunta a un programa de autoayuda que se basa en el principio de decir «sí» a cualquier cosa: a lo que sea. Al principio, liberando el poder del «sí», la vida de Carl se transforma de forma inesperada y emocionante, pero pronto descubre que abrir su existencia a un sin fin de posibilidades también conlleva sus riesgos.

Ficha técnica

Video trailer de la película

Enlaces de descarga

Rip de Bluray

Descargar Si Señor (2008) REMUX 1080p Latino – CMHDD




Aportes de DPeliculasHDmega la pass es:dpeliculashdmega.org Aportes de CinemaniaHD la pass es:cinemaniahdd.com
Guardado en : Comedia , Reality

Películas relacionadas

descargar Si Señor (2008) REMUX 1080p Latino – CMHDD Full 1080p 1080p gratis, Si Señor (2008) REMUX 1080p Latino – CMHDD Full 1080p mega 1 link, Si Señor (2008) REMUX 1080p Latino – CMHDD Full 1080p pelicula completa, descargar Si Señor (2008) REMUX 1080p Latino – CMHDD Full 1080p gratis en mega.

Si Señor (2008) REMUX 1080p Latino – CMHDD pelicula full hd, Si Señor (2008) REMUX 1080p Latino – CMHDD mega latino, Si Señor (2008) REMUX 1080p Latino – CMHDD 4k latino, Si Señor (2008) REMUX 1080p Latino – CMHDD pelicula completa, Si Señor (2008) REMUX 1080p Latino – CMHDD descargar gratis, descargar Si Señor (2008) REMUX 1080p Latino – CMHDD pelicula latino, Si Señor (2008) REMUX 1080p Latino – CMHDD 1 link mega, Si Señor (2008) REMUX 1080p Latino – CMHDD 1 link google drive, Si Señor (2008) REMUX 1080p Latino – CMHDD hd 1080p latino.
Comentarios 0