×

¿Problemas para descargar con Mozilla, EDGE? Deshabilita la opción "Abrir vinculos en una pestaña nueva" tal como lo muestra ésta imagen.

Si Señor (2008) [Open Matte] WEB DL [AMZN] 1080p Latino – CMHDD

398 vistas

Información de Si Señor (2008) [Open Matte] WEB DL [AMZN] 1080p Latino – CMHDD

Datos de la película

  • Calidad: WEBDL
  • Audio: Español Latino AC3 5.1 BLURAY - Ingles DTS 5.1 BLURAY
  • Subtitulos: Español Latino SRT
  • Resolución: 1920x1080p
  • Formato: MKV
  • Codec: H.264
  • Encoder: Dracarys
  • Mediainfo: Clic para Mostrar Datos Ver
  • Format                      : Matroska
    Format version              : Version 4
    File size                   : 10.4 GiB
    Duration                    : 1 h 44 min
    Overall bit rate mode       : Variable
    Overall bit rate            : 14.2 Mb/s
    Movie name                  : Si Señor (2008) [Open Matte] WEB DL [AMZN] 1080p Latino - CMHDD
    Encoded date                : UTC 2020-05-13 02:07:10
    Writing application         : mkvmerge v46.0.0 ('No Deeper Escape') 64-bit
    Writing library             : libebml v1.3.10 + libmatroska v1.5.2

    Video
    ID                          : 1
    Format                      : AVC
    Format/Info                 : Advanced Video Codec
    Format profile              : High@L4
    Format settings             : CABAC / 4 Ref Frames
    Format settings, CABAC      : Yes
    Format settings, Reference  : 4 frames
    Codec ID                    : V_MPEG4/ISO/AVC
    Duration                    : 1 h 44 min
    Bit rate mode               : Variable
    Bit rate                    : 12.3 Mb/s
    Maximum bit rate            : 15.0 Mb/s
    Width                       : 1 920 pixels
    Height                      : 1 080 pixels
    Display aspect ratio        : 16:9
    Frame rate mode             : Constant
    Frame rate                  : 23.976 (24000/1001) FPS
    Color space                 : YUV
    Chroma subsampling          : 4:2:0
    Bit depth                   : 8 bits
    Scan type                   : Progressive
    Bits/(Pixel*Frame)          : 0.247
    Stream size                 : 8.96 GiB (86%)
    Language                    : English
    Default                     : Yes
    Forced                      : No
    Color range                 : Limited
    Color primaries             : BT.709
    Transfer characteristics    : BT.709
    Matrix coefficients         : BT.709

    Audio #1
    ID                          : 2
    Format                      : AC-3
    Format/Info                 : Audio Coding 3
    Commercial name             : Dolby Digital
    Codec ID                    : A_AC3
    Duration                    : 1 h 44 min
    Bit rate mode               : Constant
    Bit rate                    : 448 kb/s
    Channel(s)                  : 6 channels
    Channel layout              : L R C LFE Ls Rs
    Sampling rate               : 48.0 kHz
    Frame rate                  : 31.250 FPS (1536 SPF)
    Compression mode            : Lossy
    Delay relative to video     : 7 s 200 ms
    Stream size                 : 334 MiB (3%)
    Language                    : Spanish
    Service kind                : Complete Main
    Default                     : Yes
    Forced                      : No

    Audio #2
    ID                          : 3
    Format                      : DTS
    Format/Info                 : Digital Theater Systems
    Codec ID                    : A_DTS
    Duration                    : 1 h 44 min
    Bit rate mode               : Constant
    Bit rate                    : 1 510 kb/s
    Channel(s)                  : 6 channels
    Channel layout              : C L R Ls Rs LFE
    Sampling rate               : 48.0 kHz
    Frame rate                  : 93.750 FPS (512 SPF)
    Bit depth                   : 24 bits
    Compression mode            : Lossy
    Stream size                 : 1.10 GiB (11%)
    Language                    : English
    Default                     : No
    Forced                      : No

    Text
    ID                          : 4
    Format                      : UTF-8
    Codec ID                    : S_TEXT/UTF8
    Codec ID/Info               : UTF-8 Plain Text
    Duration                    : 1 h 43 min
    Bit rate                    : 57 b/s
    Count of elements           : 1527
    Stream size                 : 43.6 KiB (0%)
    Language                    : Spanish
    Default                     : No
    Forced                      : No

  • Peso: 10.4 GiB

Sinopsis

Un hombre se reta a sí mismo que dirá «sí» absolutamente a todo. Carl Allen un día se apunta a un programa de autoayuda que se basa en el principio de decir «sí» a cualquier cosa: a lo que sea. Al principio, liberando el poder del «sí», la vida de Carl se transforma de forma inesperada y emocionante, pero pronto descubre que abrir su existencia a un sin fin de posibilidades también conlleva sus riesgos.

Ficha técnica

Video trailer de la película

Enlaces de descarga

Rip de Bluray

Descargar Si Señor (2008) [Open Matte] WEB DL [AMZN] 1080p Latino – CMHDD




Aportes de DPeliculasHDmega la pass es:dpeliculashdmega.org Aportes de CinemaniaHD la pass es:cinemaniahdd.com
Guardado en : Comedia , OPEN MATTE

Películas relacionadas

descargar Si Señor (2008) [Open Matte] WEB DL [AMZN] 1080p Latino – CMHDD WEBDL 1080p gratis, Si Señor (2008) [Open Matte] WEB DL [AMZN] 1080p Latino – CMHDD WEBDL mega 1 link, Si Señor (2008) [Open Matte] WEB DL [AMZN] 1080p Latino – CMHDD WEBDL pelicula completa, descargar Si Señor (2008) [Open Matte] WEB DL [AMZN] 1080p Latino – CMHDD WEBDL gratis en mega.

Si Señor (2008) [Open Matte] WEB DL [AMZN] 1080p Latino – CMHDD pelicula full hd, Si Señor (2008) [Open Matte] WEB DL [AMZN] 1080p Latino – CMHDD mega latino, Si Señor (2008) [Open Matte] WEB DL [AMZN] 1080p Latino – CMHDD 4k latino, Si Señor (2008) [Open Matte] WEB DL [AMZN] 1080p Latino – CMHDD pelicula completa, Si Señor (2008) [Open Matte] WEB DL [AMZN] 1080p Latino – CMHDD descargar gratis, descargar Si Señor (2008) [Open Matte] WEB DL [AMZN] 1080p Latino – CMHDD pelicula latino, Si Señor (2008) [Open Matte] WEB DL [AMZN] 1080p Latino – CMHDD 1 link mega, Si Señor (2008) [Open Matte] WEB DL [AMZN] 1080p Latino – CMHDD 1 link google drive, Si Señor (2008) [Open Matte] WEB DL [AMZN] 1080p Latino – CMHDD hd 1080p latino.
Comentarios 0