×

¿Problemas para descargar con Mozilla, EDGE? Deshabilita la opción "Abrir vinculos en una pestaña nueva" tal como lo muestra ésta imagen.

Si Señor (2008) Full HD 1080p Latino – CMHDD

406 vistas

Información de Si Señor (2008) Full HD 1080p Latino – CMHDD

Datos de la película

  • Calidad: Full 1080p
  • Audio: Español Latino AC3 5.1 BLURAY - Ingles DTS 5.1 BLURAY
  • Subtitulos: Español Latino SRT
  • Resolución: 1920x1080p
  • Formato: MKV
  • Codec: H.264
  • Encoder: Dracarys
  • Mediainfo: Clic para Mostrar Datos Ver
  • Format                      : Matroska
    Format version              : Version 4
    File size                   : 5.76 GiB
    Duration                    : 1 h 44 min
    Overall bit rate            : 7 899 kb/s
    Movie name                  : Si Señor (2008) Full HD 1080p Latino - CMHDD
    Encoded date                : UTC 2020-05-13 02:17:23
    Writing application         : mkvmerge v46.0.0 ('No Deeper Escape') 64-bit
    Writing library             : libebml v1.3.10 + libmatroska v1.5.2

    Video
    ID                          : 1
    Format                      : AVC
    Format/Info                 : Advanced Video Codec
    Format profile              : High@L4.1
    Format settings             : CABAC / 4 Ref Frames
    Format settings, CABAC      : Yes
    Format settings, Reference  : 4 frames
    Codec ID                    : V_MPEG4/ISO/AVC
    Duration                    : 1 h 44 min
    Bit rate                    : 5 925 kb/s
    Width                       : 1 920 pixels
    Height                      : 1 080 pixels
    Display aspect ratio        : 16:9
    Frame rate mode             : Constant
    Frame rate                  : 23.976 (24000/1001) FPS
    Color space                 : YUV
    Chroma subsampling          : 4:2:0
    Bit depth                   : 8 bits
    Scan type                   : Progressive
    Bits/(Pixel*Frame)          : 0.119
    Stream size                 : 4.32 GiB (75%)
    Writing library             : x264 core 157 r2935 545de2f
    Encoding settings           : cabac=1 / ref=4 / deblock=1:0:0 / analyse=0x3:0x133 / me=tesa / subme=11 / psy=1 / psy_rd=1.00:0.00 / mixed_ref=1 / me_range=24 / chroma_me=1 / trellis=2 / 8x8dct=1 / cqm=0 / deadzone=21,11 / fast_pskip=0 / chroma_qp_offset=-2 / threads=24 / lookahead_threads=6 / sliced_threads=0 / nr=0 / decimate=1 / interlaced=0 / bluray_compat=0 / constrained_intra=0 / bframes=16 / b_pyramid=2 / b_adapt=2 / b_bias=0 / direct=3 / weightb=1 / open_gop=0 / weightp=2 / keyint=240 / keyint_min=24 / scenecut=40 / intra_refresh=0 / rc_lookahead=60 / rc=crf / mbtree=1 / crf=20.0 / qcomp=0.60 / qpmin=0 / qpmax=69 / qpstep=4 / vbv_maxrate=62500 / vbv_bufsize=78125 / crf_max=0.0 / nal_hrd=none / filler=0 / ip_ratio=1.40 / aq=1:1.00
    Default                     : Yes
    Forced                      : No
    Color range                 : Limited
    Color primaries             : BT.709
    Transfer characteristics    : BT.709
    Matrix coefficients         : BT.709

    Audio #1
    ID                          : 2
    Format                      : AC-3
    Format/Info                 : Audio Coding 3
    Commercial name             : Dolby Digital
    Codec ID                    : A_AC3
    Duration                    : 1 h 44 min
    Bit rate mode               : Constant
    Bit rate                    : 448 kb/s
    Channel(s)                  : 6 channels
    Channel layout              : L R C LFE Ls Rs
    Sampling rate               : 48.0 kHz
    Frame rate                  : 31.250 FPS (1536 SPF)
    Compression mode            : Lossy
    Stream size                 : 334 MiB (6%)
    Language                    : Spanish
    Service kind                : Complete Main
    Default                     : Yes
    Forced                      : No

    Audio #2
    ID                          : 3
    Format                      : DTS
    Format/Info                 : Digital Theater Systems
    Codec ID                    : A_DTS
    Duration                    : 1 h 44 min
    Bit rate mode               : Constant
    Bit rate                    : 1 510 kb/s
    Channel(s)                  : 6 channels
    Channel layout              : C L R Ls Rs LFE
    Sampling rate               : 48.0 kHz
    Frame rate                  : 93.750 FPS (512 SPF)
    Bit depth                   : 24 bits
    Compression mode            : Lossy
    Stream size                 : 1.10 GiB (19%)
    Language                    : English
    Default                     : No
    Forced                      : No

    Text #1
    ID                          : 4
    Format                      : UTF-8
    Codec ID                    : S_TEXT/UTF8
    Codec ID/Info               : UTF-8 Plain Text
    Duration                    : 1 h 43 min
    Bit rate                    : 57 b/s
    Count of elements           : 1527
    Stream size                 : 43.6 KiB (0%)
    Title                       : SRT
    Language                    : Spanish
    Default                     : No
    Forced                      : No

    Text #2
    ID                          : 5
    Format                      : PGS
    Muxing mode                 : zlib
    Codec ID                    : S_HDMV/PGS
    Codec ID/Info               : Picture based subtitle format used on BDs/HD-DVDs
    Duration                    : 1 h 43 min
    Bit rate                    : 30.5 kb/s
    Count of elements           : 3054
    Stream size                 : 22.7 MiB (0%)
    Title                       : PGS
    Language                    : Spanish
    Default                     : No
    Forced                      : No

    Menu
    00:00:00.000                : :Otherwise Engaged
    00:04:51.374                : :Declined
    00:07:44.965                : :Lonely Guy
    00:13:22.593                : :Say the Word
    00:19:56.946                : :Giving a Ride
    00:23:30.826                : :Getting a Ride
    00:27:32.442                : :Beyond the Norm
    00:30:48.638                : :Flight Shlub
    00:36:00.408                : :Sexual Release
    00:38:58.795                : :Yes Mania
    00:41:43.626                : :Munchausen By Proxy
    00:44:38.676                : :All-Nighter
    00:51:22.496                : :Potter Party
    00:55:16.605                : :Going Bowling
    00:59:25.729                : :Bump My Fist
    01:02:47.722                : :Getting in Tune
    01:08:15.758                : :Hello, Nebraska
    01:13:52.011                : :Not Crazy About Carl
    01:18:50.643                : :Bad News Breaker
    01:21:40.854                : :Shower Matchups
    01:26:08.205                : :Negative Vibe
    01:28:50.992                : :Free and Wheeling
    01:32:58.239                : :Scared Together
    01:36:04.759                : :Barely Willing
    01:36:59.314                : :End Credits

  • Peso: 5.76 GiB

Sinopsis

Un hombre se reta a sí mismo que dirá «sí» absolutamente a todo. Carl Allen un día se apunta a un programa de autoayuda que se basa en el principio de decir «sí» a cualquier cosa: a lo que sea. Al principio, liberando el poder del «sí», la vida de Carl se transforma de forma inesperada y emocionante, pero pronto descubre que abrir su existencia a un sin fin de posibilidades también conlleva sus riesgos.

Ficha técnica

Video trailer de la película

Enlaces de descarga

Rip de Bluray

Descargar Si Señor (2008) Full HD 1080p Latino – CMHDD




Aportes de DPeliculasHDmega la pass es:dpeliculashdmega.org Aportes de CinemaniaHD la pass es:cinemaniahdd.com
Guardado en : Comedia , FULL 1080p Plateadas

Películas relacionadas

  • Abracadabra 2 (2022) D+ WEB-DL 4K UHD HDR Latino

    Abracadabra 2 (2022) D+ WEB-DL 4K UHD HDR Latino

    2022
    Abracadabra 2 (2022) D+ WEB-DL 4K UHD HDR Latino

    1h 45m 2022

    Descargar Abracadabra 2 (2022) D+ WEB-DL 4K UHD HDR Latino. Han pasado 29 años desde que alguien encendió...

    Director: Anne Fletcher

    Género: 4K HDR

    Actores: Whitney Peak

  • Abracadabra 2 (2022) D+ WEB-DL 1080p Latino

    Abracadabra 2 (2022) D+ WEB-DL 1080p Latino

    2022
    Abracadabra 2 (2022) D+ WEB-DL 1080p Latino

    1h 45m 2022

    Descargar Abracadabra 2 (2022) D+ WEB-DL 1080p Latino. Han pasado 29 años desde que alguien encendió...

    Director: Anne Fletcher

    Género: Comedia

    Actores: Whitney Peak

  • Hot Summer Nights (2017) 4K-SDR WEB-DL 2160p Latino

    Hot Summer Nights (2017) 4K-SDR WEB-DL 2160p Latino

    2018
    Hot Summer Nights (2017) 4K-SDR WEB-DL 2160p Latino

    1h 47m 2018

    Daniel es un tímido adolescente que comienza a vender marihuana, entrando en un mundo tentador pero...

    Director: Stephen W. Moore

    Género: 4K HDR

    Actores: Zack Shires

  • Hot Summer Nights (2017) AMZN WEB-DL 1080p Latino

    Hot Summer Nights (2017) AMZN WEB-DL 1080p Latino

    2018
    Hot Summer Nights (2017) AMZN WEB-DL 1080p Latino

    1h 47m 2018

    Daniel es un tímido adolescente que comienza a vender marihuana, entrando en un mundo tentador pero...

    Director: Stephen W. Moore

    Género: Comedia

    Actores: Zack Shires

descargar Si Señor (2008) Full HD 1080p Latino – CMHDD Full 1080p 1080p gratis, Si Señor (2008) Full HD 1080p Latino – CMHDD Full 1080p mega 1 link, Si Señor (2008) Full HD 1080p Latino – CMHDD Full 1080p pelicula completa, descargar Si Señor (2008) Full HD 1080p Latino – CMHDD Full 1080p gratis en mega.

Si Señor (2008) Full HD 1080p Latino – CMHDD pelicula full hd, Si Señor (2008) Full HD 1080p Latino – CMHDD mega latino, Si Señor (2008) Full HD 1080p Latino – CMHDD 4k latino, Si Señor (2008) Full HD 1080p Latino – CMHDD pelicula completa, Si Señor (2008) Full HD 1080p Latino – CMHDD descargar gratis, descargar Si Señor (2008) Full HD 1080p Latino – CMHDD pelicula latino, Si Señor (2008) Full HD 1080p Latino – CMHDD 1 link mega, Si Señor (2008) Full HD 1080p Latino – CMHDD 1 link google drive, Si Señor (2008) Full HD 1080p Latino – CMHDD hd 1080p latino.
Comentarios 0