Si no despierto (2017) 1080p Latino

2.989 vistas
1 estrella2 estrellas3 estrellas4 estrellas5 estrellas (Ninguna valoración todavía)
Cargando…

Información de Si no despierto (2017) 1080p Latino

Datos de la película

  • Calidad: 1080p
  • Audio: Español Latino AC3 5.1 DVD - Ingles AC3 5.1 BLURAY
  • Subtitulos: Español Latino SRT - Ingles SRT
  • Resolución: 1916x800p
  • Formato: MKV
  • Codec: H.264
  • Encoder: Dpelis1
  • Mediainfo: Clic para Mostrar Datos Ver
  • \Before I Fall (2017) 1080p Latino (RESUBIDA).mkv
    Format                      : Matroska
    Format version              : Version 4 / Version 2
    File size                   : 2.99 GiB
    Duration                    : 1 h 38 min
    Overall bit rate            : 4 333 kb/s
    Movie name                  : DPeliculasHDMega.ORG
    Encoded date                : UTC 2017-10-01 20:49:05 / UTC 2017-09-30T21:45:00Z
    Writing application         : mkvmerge v10.0.0 ('To Drown In You') 64bit
    Writing library             : libebml v1.3.4 + libmatroska v1.4.5 / Lavf57.7.2

    Video
    ID                          : 1
    Format                      : AVC
    Format/Info                 : Advanced Video Codec
    Format profile              : [email protected]
    Format settings, CABAC      : Yes
    Format settings, RefFrames  : 4 frames
    Codec ID                    : V_MPEG4/ISO/AVC
    Duration                    : 1 h 38 min
    Bit rate                    : 3 500 kb/s
    Width                       : 1 916 pixels
    Height                      : 800 pixels
    Display aspect ratio        : 2.40:1
    Frame rate mode             : Constant
    Frame rate                  : 23.976 (24000/1001) FPS
    Color space                 : YUV
    Chroma subsampling          : 4:2:0
    Bit depth                   : 8 bits
    Scan type                   : Progressive
    Bits/(Pixel*Frame)          : 0.095
    Stream size                 : 2.36 GiB (79%)
    Writing library             : x264 core 148 r2708 86b7198
    Encoding settings           : cabac=1 / ref=3 / deblock=1:0:0 / analyse=0x3:0x113 / me=hex / subme=7 / psy=1 / psy_rd=1.00:0.00 / mixed_ref=1 / me_range=16 / chroma_me=1 / trellis=1 / 8x8dct=1 / cqm=0 / deadzone=21,11 / fast_pskip=1 / chroma_qp_offset=-2 / threads=12 / lookahead_threads=2 / sliced_threads=0 / nr=0 / decimate=1 / interlaced=0 / bluray_compat=0 / constrained_intra=0 / bframes=3 / b_pyramid=2 / b_adapt=1 / b_bias=0 / direct=1 / weightb=1 / open_gop=0 / weightp=2 / keyint=240 / keyint_min=24 / scenecut=40 / intra_refresh=0 / rc_lookahead=40 / rc=2pass / mbtree=1 / bitrate=3500 / ratetol=1.0 / qcomp=0.60 / qpmin=0 / qpmax=69 / qpstep=4 / cplxblur=20.0 / qblur=0.5 / vbv_maxrate=62500 / vbv_bufsize=78125 / nal_hrd=none / filler=0 / ip_ratio=1.40 / aq=1:1.00
    Default                     : Yes
    Forced                      : No
    Color range                 : Limited
    Color primaries             : BT.709
    Transfer characteristics    : BT.709
    Matrix coefficients         : BT.709
    Statistics Tags Issue       : mkvmerge v10.0.0 ('To Drown In You') 64bit 2017-10-01 20:49:05 / mkvmerge v10.0.0 ('To Drown In You') 64bit 2017-10-01 20:49:05 / UTC 2017-09-30T21:45:00Z
    FromStats_BitRate           : 3498924
    FromStats_Duration          : 01:38:47.964000000
    FromStats_FrameCount        : 142129
    FromStats_StreamSize        : 2592687055

    Audio #1
    ID                          : 2
    Format                      : AC-3
    Format/Info                 : Audio Coding 3
    Format settings, Endianness : Big
    Codec ID                    : A_AC3
    Duration                    : 1 h 38 min
    Bit rate mode               : Constant
    Bit rate                    : 448 kb/s
    Channel(s)                  : 6 channels
    Channel positions           : Front: L C R, Side: L R, LFE
    Sampling rate               : 48.0 kHz
    Frame rate                  : 31.250 FPS (1536 SPF)
    Bit depth                   : 16 bits
    Compression mode            : Lossy
    Delay relative to video     : 4 s 795 ms
    Stream size                 : 317 MiB (10%)
    Language                    : Spanish
    Service kind                : Complete Main
    Default                     : No
    Forced                      : No
    Statistics Tags Issue       : mkvmerge v10.0.0 ('To Drown In You') 64bit 2017-10-01 20:49:05 / mkvmerge v10.0.0 ('To Drown In You') 64bit 2017-10-01 20:49:05 / UTC 2017-09-30T21:45:00Z
    FromStats_BitRate           : 448000
    FromStats_Duration          : 01:38:43.616000000
    FromStats_FrameCount        : 185113
    FromStats_StreamSize        : 331722496

    Audio #2
    ID                          : 3
    Format                      : AC-3
    Format/Info                 : Audio Coding 3
    Format settings, Endianness : Big
    Codec ID                    : A_AC3
    Duration                    : 1 h 38 min
    Bit rate mode               : Constant
    Bit rate                    : 384 kb/s
    Channel(s)                  : 6 channels
    Channel positions           : Front: L C R, Side: L R, LFE
    Sampling rate               : 48.0 kHz
    Frame rate                  : 31.250 FPS (1536 SPF)
    Bit depth                   : 16 bits
    Compression mode            : Lossy
    Delay relative to video     : -5 ms
    Stream size                 : 271 MiB (9%)
    Title                       : Surround
    Language                    : English
    Service kind                : Complete Main
    Default                     : Yes
    Forced                      : No
    Statistics Tags Issue       : mkvmerge v10.0.0 ('To Drown In You') 64bit 2017-10-01 20:49:05 / mkvmerge v10.0.0 ('To Drown In You') 64bit 2017-10-01 20:49:05 / UTC 2017-09-30T21:45:00Z
    FromStats_BitRate           : 384000
    FromStats_Duration          : 01:38:47.936000000
    FromStats_FrameCount        : 185248
    FromStats_StreamSize        : 284540928

    Text #1
    ID                          : 4
    Format                      : UTF-8
    Codec ID                    : S_TEXT/UTF8
    Codec ID/Info               : UTF-8 Plain Text
    Default                     : Yes
    Forced                      : No
    Statistics Tags Issue       : mkvmerge v10.0.0 ('To Drown In You') 64bit 2017-10-01 20:49:05 / mkvmerge v10.0.0 ('To Drown In You') 64bit 2017-10-01 20:49:05 / UTC 2017-09-30T21:45:00Z
    FromStats_BitRate           : 87
    FromStats_Duration          : 00:00:10.100000000
    FromStats_FrameCount        : 1
    FromStats_StreamSize        : 110

    Text #2
    ID                          : 5
    Format                      : UTF-8
    Codec ID                    : S_TEXT/UTF8
    Codec ID/Info               : UTF-8 Plain Text
    Language                    : Spanish
    Default                     : No
    Forced                      : No
    Statistics Tags Issue       : mkvmerge v10.0.0 ('To Drown In You') 64bit 2017-10-01 20:49:05 / mkvmerge v10.0.0 ('To Drown In You') 64bit 2017-10-01 20:49:05 / UTC 2017-09-30T21:45:00Z
    FromStats_BitRate           : 50
    FromStats_Duration          : 01:32:09.405000000
    FromStats_FrameCount        : 1183
    FromStats_StreamSize        : 34978

    Text #3
    ID                          : 6
    Format                      : UTF-8
    Codec ID                    : S_TEXT/UTF8
    Codec ID/Info               : UTF-8 Plain Text
    Language                    : English
    Default                     : No
    Forced                      : No
    Statistics Tags Issue       : mkvmerge v10.0.0 ('To Drown In You') 64bit 2017-10-01 20:49:05 / mkvmerge v10.0.0 ('To Drown In You') 64bit 2017-10-01 20:49:05 / UTC 2017-09-30T21:45:00Z
    FromStats_BitRate           : 52
    FromStats_Duration          : 01:32:09.322000000
    FromStats_FrameCount        : 1229
    FromStats_StreamSize        : 36114

    Menu
    00:00:00.000                : :Chapter 1
    00:05:23.448                : :Chapter 2
    00:10:13.321                : :Chapter 3
    00:14:14.520                : :Chapter 4
    00:22:23.843                : :Chapter 5
    00:27:21.974                : :Chapter 6
    00:33:41.478                : :Chapter 7
    00:37:41.384                : :Chapter 8
    00:41:21.145                : :Chapter 9
    00:46:37.795                : :Chapter 10
    00:51:23.038                : :Chapter 11
    00:56:48.238                : :Chapter 12
    00:59:33.862                : :Chapter 13
    01:04:07.677                : :Chapter 14
    01:08:31.691                : :Chapter 15
    01:13:09.927                : :Chapter 16
    01:17:50.457                : :Chapter 17
    01:21:09.531                : :Chapter 18
    01:25:44.389                : :Chapter 19
    01:33:19.636                : :Chapter 20

  • Peso: 2,99 GB

Sinopsis

Descargar gratis Si no despierto (2017) 1080p Latino. En princpio el 12 de febrro es sólo otro día en la acomodada vida de la joven Sam, pero resulta que va a ser el último. Intentando revivir su último día durante un tiempo, Sam intentará desentrañar el misterio alrededor de su muerte… y descubrir todo lo que está en peligro de perder.

RESUBIDA 01 Octubre 2017

Aplicar 4800 Delay para la que bajaron anterior y tenia desafe.

Ficha técnica

Video trailer de la película

Enlaces de descarga

Rip de Bluray

Descargar Si no despierto (2017) 1080p Latino




Aportes de DPeliculasHDmega la pass es:dpeliculashdmega.org Aportes de CinemaniaHD la pass es:cinemaniahdd.com
Guardado en : Drama , Misterio , Suspense

Películas relacionadas

  • Hunter Killer (2018) HD 1080p Latino

    2018
    Hunter Killer (2018) HD 1080p Latino

    3.0 2h 2m 2018

    Descargar Hunter Killer (2018) HD 1080p Latino, Mega, Google Drive, Torrent. Un capitán de submarinos...

    Director: Donovan Marsh

    Género: Acción

    Actores: Zane Holtz

  • Sorry For Your Loss (2018) AMZN 1080p Latino

    2018
    Sorry For Your Loss (2018) AMZN 1080p Latino

    5.0 1h 40m 2018

    Sorry for Your Loss es una comedia oscura que narra la historia de una joven viuda Leigh Gibbs. Para...

    Director: Collin Friesen

    Género: Comedia

    Actores: Sandrine Holt

  • Grace and Frankie (2019) Temporada 5 NF 1080p Latino

    2015
    Grace and Frankie (2019) Temporada 5 NF 1080p Latino

    0.0 0h 32m 2015

    Esta comedia se centra en dos antiguas rivales, Grace (Jane Fonda) y Frankie (Lily Tomlin), y el cambio...

    Director: Marta Kauffman

    Género: Comedia

    Actores: Tim Bagley

  • The Punisher (2019) Temporada 2 NF 1080p Latino

    2017
    The Punisher (2019) Temporada 2 NF 1080p Latino

    5.0 0h 53m 2017

    Por ahora, Netflix no ha revelado el contenido de la temporada 2 de "The Punisher", ya que lo único...

    Director: Steve Lightfoot

    Género: Action & Adventure

    Actores: Josh Stewart

  • Close (2019) NF 1080p Latino

    2019
    Close (2019) NF 1080p Latino

    0.0 1h 34m 2019

    A Sam (Rapace), una experta guardaespaldas acostumbrada a territorios en guerra, le asignan un trabajo...

    Director: Vicky Jewson

    Género: Acción

    Actores: Sophie Nélisse

Comentarios 13
  • Hugo - 02 octubre, 2017

    Gracias por el aporte. pero el audio latino está desfazado.

    • dpelis - 02 octubre, 2017

      si, fue reparado el dia de ayer estimado. ahora deje la nota.

      • Hugo - 02 octubre, 2017

        Muchas gracias por la prota respuesta.

      • Hugo - 03 octubre, 2017

        Ahora si… Muy bien!! quedo muy bien y se agradece que se hagan cargos de estos detalles, cada día más me gusta esta página. Le voy un 10/10. No se donde más calificar, pero se merecen la mayor puntuación.

        Gracias.

        • dpelis - 03 octubre, 2017

          Muchas gracias, saludos.

  • Ricardo Ortiz - 02 octubre, 2017

    Excelente Pelicula, la recomiendo, le doy un 10/10, bueno a mi me encanto.

    • dpelis - 02 octubre, 2017

      muchas gracias por su valoracion

  • Jose - 01 octubre, 2017

    El audio en latino esta desincronizado

    • dpelis - 01 octubre, 2017

      ya fue reparado, disculpa por el inconveniente

  • Jorge - 01 octubre, 2017

    No puedo descargar por mega

    • dpelis - 01 octubre, 2017

      porfavor seguir los pasos
      saludos

  • seba - 01 octubre, 2017

    buen aporte =)
    esperare la gris.

    • dpelis - 01 octubre, 2017

      si se subira , saludos