×

¿Problemas para descargar con Mozilla, EDGE? Deshabilita la opción "Abrir vinculos en una pestaña nueva" tal como lo muestra ésta imagen.

Si lo hubiera sabido (2022) Temporada 1 NF WEB-DL 1080p Cast

34 vistas

Información de Si lo hubiera sabido (2022) Temporada 1 NF WEB-DL 1080p Cast

Datos de la película

  • Calidad: WEBDL
  • Audio: Se especifica abajo de la Sinopsis
  • Subtitulos: No
  • Resolución: 1920x1080p
  • Formato: MKV
  • Codec: H.264
  • Encoder: Melkor
  • Mediainfo: Clic para Mostrar Datos Ver
  • Si lo hubiera sabido S01E01 (2022) NF WEB-DL 1080p Cast.mkv
    Format                      : Matroska
    Format version              : Version 4
    File size                   : 1.23 GiB
    Duration                    : 35 min 56 s
    Overall bit rate mode       : Variable
    Overall bit rate            : 4 884 kb/s
    Movie name                  : Si lo hubiera sabido S01E01 CinemaniaHDD.Net
    Encoded date                : UTC 2022-10-31 19:22:03
    Writing application         : mkvmerge v59.0.0 ('Shining Star') 64-bit
    Writing library             : libebml v1.4.2 + libmatroska v1.6.4
    Attachments                 : CINEMANIAHD.png / CINEMANIAHD.png

    Video
    ID                          : 1
    Format                      : AVC
    Format/Info                 : Advanced Video Codec
    Format profile              : Main@L4
    Format settings             : CABAC / 3 Ref Frames
    Format settings, CABAC      : Yes
    Format settings, Reference  : 3 frames
    Codec ID                    : V_MPEG4/ISO/AVC
    Duration                    : 35 min 56 s
    Bit rate mode               : Variable
    Bit rate                    : 4 113 kb/s
    Nominal bit rate            : 2 887 kb/s
    Maximum bit rate            : 9 285 kb/s
    Width                       : 1 920 pixels
    Height                      : 1 080 pixels
    Display aspect ratio        : 16:9
    Frame rate mode             : Constant
    Frame rate                  : 25.000 FPS
    Color space                 : YUV
    Chroma subsampling          : 4:2:0
    Bit depth                   : 8 bits
    Scan type                   : Progressive
    Bits/(Pixel*Frame)          : 0.079
    Stream size                 : 1.03 GiB (84%)
    Title                       : WEB HD1080p [CinemaniaHDD]
    Writing library             : x264 core 148 r2727 7d026e8
    Encoding settings           : cabac=1 / ref=3 / deblock=1:0:0 / analyse=0x1:0x111 / me=umh / subme=10 / psy=1 / psy_rd=1.00:0.00 / mixed_ref=1 / me_range=24 / chroma_me=1 / trellis=2 / 8x8dct=0 / cqm=0 / deadzone=21,11 / fast_pskip=1 / chroma_qp_offset=-2 / threads=8 / lookahead_threads=1 / sliced_threads=0 / nr=0 / decimate=1 / interlaced=0 / bluray_compat=0 / stitchable=1 / constrained_intra=0 / bframes=2 / b_pyramid=0 / b_adapt=2 / b_bias=0 / direct=3 / weightb=1 / open_gop=0 / weightp=2 / keyint=250 / keyint_min=25 / scenecut=0 / intra_refresh=0 / rc_lookahead=50 / rc=2pass / mbtree=1 / bitrate=2887 / ratetol=1.0 / qcomp=0.50 / qpmin=6 / qpmax=51 / qpstep=4 / cplxblur=20.0 / qblur=0.5 / vbv_maxrate=9285 / vbv_bufsize=12380 / nal_hrd=vbr / filler=0 / ip_ratio=1.40 / aq=1:1.00
    Default                     : Yes
    Forced                      : Yes

    Audio
    ID                          : 2
    Format                      : E-AC-3 JOC
    Format/Info                 : Enhanced AC-3 with Joint Object Coding
    Commercial name             : Dolby Digital Plus with Dolby Atmos
    Codec ID                    : A_EAC3
    Duration                    : 35 min 56 s
    Bit rate mode               : Constant
    Bit rate                    : 768 kb/s
    Channel(s)                  : 6 channels
    Channel layout              : L R C LFE Ls Rs
    Sampling rate               : 48.0 kHz
    Frame rate                  : 31.250 FPS (1536 SPF)
    Compression mode            : Lossy
    Stream size                 : 197 MiB (16%)
    Title                       : Español Castellano [CinemaniaHDD]
    Language                    : Spanish
    Service kind                : Complete Main
    Default                     : Yes
    Forced                      : Yes
    Complexity index            : 16
    Number of dynamic objects   : 15
    Bed channel count           : 1 channel
    Bed channel configuration   : LFE

  • Peso: 1.3 GiB Aprox. C/U -- 9.59 GiB -- 8 Chapters

Sinopsis

Descargar Si lo hubiera sabido (2022) Temporada 1 NF WEB-DL 1080p Cast. Emma es una mujer de 30 años decepcionada con su matrimonio de una década con Nando y su vida familiar, y que siente que su vida ha perdido su brillo. Atrapada en una rutina sin romance ni emoción, se da cuenta de que si pudiera retroceder en el tiempo, no aceptaría la propuesta de matrimonio de Nando y decide que debería divorciarse de él. Un par de días más tarde, mientras se dirige a ver un eclipse lunar poco común con sus amigos, una falla en el tiempo la envía 10 años atrás, al 2008. Su mente de 30 años está atrapada en su cuerpo de 20 años. La vida le da una oportunidad de reevaluar quién era y en quién quiere convertirse, con la clara ventaja de saber ya lo que le espera al mundo en la próxima década.

Español Castellano EAC3 JOC 5.1 NF

Ficha técnica

Video trailer de la película

Enlaces de descarga

Rip de Bluray

Descargar Si lo hubiera sabido (2022) Temporada 1 NF WEB-DL 1080p Cast




Aportes de DPeliculasHDmega la pass es:dpeliculashdmega.org Aportes de CinemaniaHD la pass es:cinemaniahdd.com
Guardado en : Drama , Netflix , Sci-Fi & Fantasy , Series

Películas relacionadas

descargar Si lo hubiera sabido (2022) Temporada 1 NF WEB-DL 1080p Cast WEBDL 1080p gratis, Si lo hubiera sabido (2022) Temporada 1 NF WEB-DL 1080p Cast WEBDL mega 1 link, Si lo hubiera sabido (2022) Temporada 1 NF WEB-DL 1080p Cast WEBDL serie completa, descargar Si lo hubiera sabido (2022) Temporada 1 NF WEB-DL 1080p Cast WEBDL gratis en mega.

Si lo hubiera sabido (2022) Temporada 1 NF WEB-DL 1080p Cast pelicula full hd, Si lo hubiera sabido (2022) Temporada 1 NF WEB-DL 1080p Cast mega latino, Si lo hubiera sabido (2022) Temporada 1 NF WEB-DL 1080p Cast 4k latino, Si lo hubiera sabido (2022) Temporada 1 NF WEB-DL 1080p Cast pelicula completa, Si lo hubiera sabido (2022) Temporada 1 NF WEB-DL 1080p Cast descargar gratis, descargar Si lo hubiera sabido (2022) Temporada 1 NF WEB-DL 1080p Cast pelicula latino, Si lo hubiera sabido (2022) Temporada 1 NF WEB-DL 1080p Cast 1 link mega, Si lo hubiera sabido (2022) Temporada 1 NF WEB-DL 1080p Cast 1 link google drive, Si lo hubiera sabido (2022) Temporada 1 NF WEB-DL 1080p Cast hd 1080p latino.
Comentarios 0