×

¿Problemas para descargar con Mozilla, EDGE? Deshabilita la opción "Abrir vinculos en una pestaña nueva" tal como lo muestra ésta imagen.

Si La Colonia Hablara (2018) Full HD 1080p Latino

1.554 vistas

Información de Si La Colonia Hablara (2018) Full HD 1080p Latino

Datos de la película

  • Calidad: Full 1080p
  • Audio: Se especifica abajo de la Sinopsis
  • Subtitulos: Español Latino PGS - Ingles PGS
  • Resolución: 1920x1080p
  • Formato: MKV
  • Codec: H.264
  • Encoder: CinefiloCool
  • Mediainfo: Clic para Mostrar Datos Ver
  • Si La Colonia Hablara (2018) Full HD 1080p Latino-CMHDD.mkv
    Format                      : Matroska
    Format version              : Version 4
    File size                   : 5.32 GiB
    Duration                    : 1 h 59 min
    Overall bit rate            : 6 381 kb/s
    Movie name                  : CinemaniaHDD.Net
    Encoded date                : UTC 2020-03-17 06:11:22
    Writing application         : mkvmerge v42.0.0 ('Overtime') 64-bit
    Writing library             : libebml v1.3.10 + libmatroska v1.5.2
    Attachments                 : CINEMANIAHD.png

    Video
    ID                          : 1
    Format                      : AVC
    Format/Info                 : Advanced Video Codec
    Format profile              : High@L4.1
    Format settings             : CABAC / 4 Ref Frames
    Format settings, CABAC      : Yes
    Format settings, ReFrames   : 4 frames
    Codec ID                    : V_MPEG4/ISO/AVC
    Duration                    : 1 h 59 min
    Bit rate                    : 4 592 kb/s
    Width                       : 1 920 pixels
    Height                      : 1 080 pixels
    Display aspect ratio        : 16:9
    Frame rate mode             : Constant
    Frame rate                  : 23.976 (24000/1001) FPS
    Color space                 : YUV
    Chroma subsampling          : 4:2:0
    Bit depth                   : 8 bits
    Scan type                   : Progressive
    Bits/(Pixel*Frame)          : 0.092
    Stream size                 : 3.82 GiB (72%)
    Title                       : Full HD1080p [Bluray]
    Writing library             : x264 core 157 r2935 545de2f
    Encoding settings           : cabac=1 / ref=4 / deblock=1:0:0 / analyse=0x3:0x133 / me=tesa / subme=11 / psy=1 / psy_rd=1.00:0.00 / mixed_ref=1 / me_range=24 / chroma_me=1 / trellis=2 / 8x8dct=1 / cqm=0 / deadzone=21,11 / fast_pskip=0 / chroma_qp_offset=-2 / threads=34 / lookahead_threads=8 / sliced_threads=0 / nr=0 / decimate=1 / interlaced=0 / bluray_compat=0 / constrained_intra=0 / bframes=16 / b_pyramid=2 / b_adapt=2 / b_bias=0 / direct=3 / weightb=1 / open_gop=0 / weightp=2 / keyint=240 / keyint_min=24 / scenecut=40 / intra_refresh=0 / rc_lookahead=60 / rc=crf / mbtree=1 / crf=19.0 / qcomp=0.60 / qpmin=0 / qpmax=69 / qpstep=4 / vbv_maxrate=62500 / vbv_bufsize=78125 / crf_max=0.0 / nal_hrd=none / filler=0 / ip_ratio=1.40 / aq=1:1.00
    Default                     : Yes
    Forced                      : No
    Color range                 : Limited
    Color primaries             : BT.709
    Transfer characteristics    : BT.709
    Matrix coefficients         : BT.709

    Audio #1
    ID                          : 2
    Format                      : AC-3
    Format/Info                 : Audio Coding 3
    Commercial name             : Dolby Digital
    Codec ID                    : A_AC3
    Duration                    : 1 h 59 min
    Bit rate mode               : Constant
    Bit rate                    : 256 kb/s
    Channel(s)                  : 2 channels
    Channel layout              : L R
    Sampling rate               : 48.0 kHz
    Frame rate                  : 31.250 FPS (1536 SPF)
    Bit depth                   : 16 bits
    Compression mode            : Lossy
    Stream size                 : 218 MiB (4%)
    Title                       : AC3_2.0_Capt_Esp
    Language                    : Spanish
    Service kind                : Complete Main
    Default                     : Yes
    Forced                      : Yes

    Audio #2
    ID                          : 3
    Format                      : DTS
    Format/Info                 : Digital Theater Systems
    Codec ID                    : A_DTS
    Duration                    : 1 h 59 min
    Bit rate mode               : Constant
    Bit rate                    : 1 509 kb/s
    Channel(s)                  : 6 channels
    Channel layout              : C L R Ls Rs LFE
    Sampling rate               : 48.0 kHz
    Frame rate                  : 93.750 FPS (512 SPF)
    Bit depth                   : 24 bits
    Compression mode            : Lossy
    Stream size                 : 1.26 GiB (24%)
    Title                       : DTS_5.1_Bluray_Eng
    Language                    : English
    Default                     : No
    Forced                      : No

    Text #1
    ID                          : 4
    Format                      : PGS
    Muxing mode                 : zlib
    Codec ID                    : S_HDMV/PGS
    Codec ID/Info               : Picture based subtitle format used on BDs/HD-DVDs
    Duration                    : 1 h 58 min
    Bit rate                    : 31.7 kb/s
    Count of elements           : 2424
    Stream size                 : 26.9 MiB (0%)
    Title                       : Sub_Esp [PGS]
    Language                    : Spanish
    Default                     : No
    Forced                      : No

    Text #2
    ID                          : 5
    Format                      : PGS
    Muxing mode                 : zlib
    Codec ID                    : S_HDMV/PGS
    Codec ID/Info               : Picture based subtitle format used on BDs/HD-DVDs
    Duration                    : 1 h 58 min
    Bit rate                    : 37.5 kb/s
    Count of elements           : 3226
    Stream size                 : 31.9 MiB (1%)
    Title                       : Sub_Eng [PGS]
    Language                    : English
    Default                     : No
    Forced                      : No

    Text #3
    ID                          : 6
    Format                      : UTF-8
    Codec ID                    : S_TEXT/UTF8
    Codec ID/Info               : UTF-8 Plain Text
    Duration                    : 1 h 54 min
    Bit rate                    : 54 b/s
    Count of elements           : 1321
    Stream size                 : 45.4 KiB (0%)
    Title                       : Sub_Esp
    Language                    : Spanish
    Default                     : No
    Forced                      : No

    Menu
    00:00:00.000                : :Chapter 1
    00:07:11.306                : :Chapter 2
    00:13:43.031                : :Chapter 3
    00:16:26.736                : :Chapter 4
    00:25:40.956                : :Chapter 5
    00:29:03.075                : :Chapter 6
    00:32:50.177                : :Chapter 7
    00:39:06.803                : :Chapter 8
    00:41:52.260                : :Chapter 9
    00:46:38.462                : :Chapter 10
    00:56:23.297                : :Chapter 11
    01:01:46.453                : :Chapter 12
    01:06:14.554                : :Chapter 13
    01:11:51.808                : :Chapter 14
    01:16:10.858                : :Chapter 15
    01:21:24.546                : :Chapter 16
    01:24:23.559                : :Chapter 17
    01:30:51.154                : :Chapter 18
    01:33:44.369                : :Chapter 19
    01:37:17.081                : :Chapter 20
    01:39:53.613                : :Chapter 21
    01:43:17.775                : :Chapter 22
    01:49:23.682                : :Chapter 23
    01:52:18.190                : :Chapter 24

  • Peso: 5.32 GiB

Sinopsis

Descargar Si La Colonia Hablara (2018) Full HD 1080p Latino, Mega, Google Drive. Basada en la novela de James Baldwin, «If Beale Street Could Talk», la película sigue a Tish, una mujer de Harlem embarazada y recién prometida que lucha contrarreloj para demostrar la inocencia de su pareja.

Audio Español Latino AC3 2.0 Capturado – Ingles DTS 5.1 Bluray

Ficha técnica

Video trailer de la película

Enlaces de descarga

Rip de Bluray

Descargar Si La Colonia Hablara (2018) Full HD 1080p Latino




Aportes de DPeliculasHDmega la pass es:dpeliculashdmega.org Aportes de CinemaniaHD la pass es:cinemaniahdd.com

Películas relacionadas

descargar Si La Colonia Hablara (2018) Full HD 1080p Latino Full 1080p 1080p gratis, Si La Colonia Hablara (2018) Full HD 1080p Latino Full 1080p mega 1 link, Si La Colonia Hablara (2018) Full HD 1080p Latino Full 1080p pelicula completa, descargar Si La Colonia Hablara (2018) Full HD 1080p Latino Full 1080p gratis en mega.

Si La Colonia Hablara (2018) Full HD 1080p Latino pelicula full hd, Si La Colonia Hablara (2018) Full HD 1080p Latino mega latino, Si La Colonia Hablara (2018) Full HD 1080p Latino 4k latino, Si La Colonia Hablara (2018) Full HD 1080p Latino pelicula completa, Si La Colonia Hablara (2018) Full HD 1080p Latino descargar gratis, descargar Si La Colonia Hablara (2018) Full HD 1080p Latino pelicula latino, Si La Colonia Hablara (2018) Full HD 1080p Latino 1 link mega, Si La Colonia Hablara (2018) Full HD 1080p Latino 1 link google drive, Si La Colonia Hablara (2018) Full HD 1080p Latino hd 1080p latino.
Comentarios 0