×

¿Problemas para descargar con Mozilla, EDGE? Deshabilita la opción "Abrir vinculos en una pestaña nueva" tal como lo muestra ésta imagen.

Sí, Dios mío, sí (2019) REMUX 1080p SUB

164 vistas

Información de Sí, Dios mío, sí (2019) REMUX 1080p SUB

Datos de la película

  • Calidad: Full 1080p
  • Audio: Ingles DTS 5.1 BLURAY
  • Subtitulos: Español Latino SRT
  • Resolución: 1920x1080p
  • Formato: MKV
  • Codec: H.264
  • Encoder: Melkor
  • Mediainfo: Clic para Mostrar Datos Ver
  • Si Dios Mio, Si (2019) REMUX 1080p SUB.mkv
    Format                      : Matroska
    Format version              : Version 4
    File size                   : 19.9 GiB
    Duration                    : 1 h 17 min
    Overall bit rate mode       : Variable
    Overall bit rate            : 36.8 Mb/s
    Movie name                  : Yes, God, Yes (2020) CinemaniaHDD.Net
    Encoded date                : UTC 2021-10-08 05:55:39
    Writing application         : mkvmerge v56.1.0 ('My Friend') 64-bit
    Writing library             : libebml v1.4.2 + libmatroska v1.6.4
    Attachments                 : CINEMANIAHD.png

    Video
    ID                          : 1
    Format                      : AVC
    Format/Info                 : Advanced Video Codec
    Format profile              : High@L4.1
    Format settings             : CABAC / 4 Ref Frames
    Format settings, CABAC      : Yes
    Format settings, Reference  : 4 frames
    Codec ID                    : V_MPEG4/ISO/AVC
    Duration                    : 1 h 17 min
    Bit rate mode               : Variable
    Bit rate                    : 33.5 Mb/s
    Maximum bit rate            : 36.0 Mb/s
    Width                       : 1 920 pixels
    Height                      : 1 080 pixels
    Display aspect ratio        : 16:9
    Frame rate mode             : Constant
    Frame rate                  : 24.000 FPS
    Color space                 : YUV
    Chroma subsampling          : 4:2:0
    Bit depth                   : 8 bits
    Scan type                   : Progressive
    Bits/(Pixel*Frame)          : 0.674
    Stream size                 : 18.2 GiB (91%)
    Title                       : REMUX HD1080p [CinemaniaHDD]
    Default                     : Yes
    Forced                      : Yes

    Audio
    ID                          : 2
    Format                      : DTS XLL
    Format/Info                 : Digital Theater Systems
    Commercial name             : DTS-HD Master Audio
    Codec ID                    : A_DTS
    Duration                    : 1 h 17 min
    Bit rate mode               : Variable
    Bit rate                    : 3 236 kb/s
    Channel(s)                  : 6 channels
    Channel layout              : C L R Ls Rs LFE
    Sampling rate               : 48.0 kHz
    Frame rate                  : 93.750 FPS (512 SPF)
    Bit depth                   : 24 bits
    Compression mode            : Lossless
    Stream size                 : 1.75 GiB (9%)
    Title                       : Ingles [CinemaniaHDD]
    Language                    : English
    Default                     : Yes
    Forced                      : No

    Text #1
    ID                          : 3
    Format                      : UTF-8
    Codec ID                    : S_TEXT/UTF8
    Codec ID/Info               : UTF-8 Plain Text
    Duration                    : 1 h 13 min
    Bit rate                    : 52 b/s
    Count of elements           : 842
    Stream size                 : 28.6 KiB (0%)
    Title                       : Español-SRT [CinemaniaHDD]
    Language                    : Spanish
    Default                     : Yes
    Forced                      : Yes

    Text #2
    ID                          : 4
    Format                      : PGS
    Muxing mode                 : zlib
    Codec ID                    : S_HDMV/PGS
    Codec ID/Info               : Picture based subtitle format used on BDs/HD-DVDs
    Duration                    : 1 h 1 min
    Bit rate                    : 502 b/s
    Count of elements           : 22
    Stream size                 : 225 KiB (0%)
    Title                       : Ingles [CinemaniaHDD]
    Language                    : English
    Default                     : No
    Forced                      : No

    Menu
    00:00:00.000                : Chapter 01
    00:04:29.125                : Chapter 02
    00:09:00.833                : Chapter 03
    00:12:43.000                : Chapter 04
    00:15:53.583                : Chapter 05
    00:19:34.333                : Chapter 06
    00:22:57.042                : Chapter 07
    00:26:33.542                : Chapter 08
    00:31:38.167                : Chapter 09
    00:35:22.958                : Chapter 10
    00:41:19.958                : Chapter 11
    00:45:49.375                : Chapter 12
    00:52:26.917                : Chapter 13
    01:01:02.042                : Chapter 14
    01:07:25.250                : Chapter 15
    01:12:36.250                : Chapter 16

  • Peso: 19.9 GiB

Sinopsis

Descargar Sí, Dios mío, sí (2019) REMUX 1080p SUB. Alice, una joven católica inocente, se siente tentada a masturbarse después de que una conversación de AOL de repente se vuelve sexual, pero está en conflicto ya que el acto se consideraría un pecado.

Ficha técnica

Video trailer de la película

Enlaces de descarga

Rip de Bluray

Descargar Sí, Dios mío, sí (2019) REMUX 1080p SUB




Aportes de DPeliculasHDmega la pass es:dpeliculashdmega.org Aportes de CinemaniaHD la pass es:cinemaniahdd.com
Guardado en : Comedia , Drama , Remux

Películas relacionadas

  • Jaula Mental (2022) HD 1080p Latino

    Jaula Mental (2022) HD 1080p Latino

    2022
    Jaula Mental (2022) HD 1080p Latino

    1h 47m 2022

    Descargar Jaula Mental (2022) HD 1080p Latino. Cuando un asesino que imita otros crímenes comienza a...

    Director: Mauro Borrelli

    Género: Crimen

    Actores: Victoria Fox

  • Jaula Mental (2022) PLACEBO Full HD 1080p Latino

    Jaula Mental (2022) PLACEBO Full HD 1080p Latino

    2022
    Jaula Mental (2022) PLACEBO Full HD 1080p Latino

    1h 47m 2022

    Descargar Jaula Mental (2022) PLACEBO Full HD 1080p Latino. Cuando un asesino que imita otros crímenes...

    Director: Mauro Borrelli

    Género: Crimen

    Actores: Victoria Fox

  • Jaula Mental (2022) REMUX 1080p Latino

    Jaula Mental (2022) REMUX 1080p Latino

    2022
    Jaula Mental (2022) REMUX 1080p Latino

    1h 47m 2022

    Descargar Jaula Mental (2022) REMUX 1080p Latino. Cuando un asesino que imita otros crímenes comienza...

    Director: Mauro Borrelli

    Género: Crimen

    Actores: Victoria Fox

  • Transfusion (2023) HD 1080p Latino

    Transfusion (2023) HD 1080p Latino

    2023
    Transfusion (2023) HD 1080p Latino

    1h 45m 2023

    Descargar Transfusion (2023) HD 1080p Latino. Un antiguo agente de las Fuerzas Especiales se ve empujado...

    Director: Matt Nable

    Género: Crimen

    Actores: Trystan Go

  • Transfusion (2023) PLACEBO Full HD 1080p Latino

    Transfusion (2023) PLACEBO Full HD 1080p Latino

    2023
    Transfusion (2023) PLACEBO Full HD 1080p Latino

    1h 45m 2023

    Descargar Transfusion (2023) PLACEBO Full HD 1080p Latino. Un antiguo agente de las Fuerzas Especiales...

    Director: Matt Nable

    Género: Crimen

    Actores: Trystan Go

descargar Sí, Dios mío, sí (2019) REMUX 1080p SUB Full 1080p 1080p gratis, Sí, Dios mío, sí (2019) REMUX 1080p SUB Full 1080p mega 1 link, Sí, Dios mío, sí (2019) REMUX 1080p SUB Full 1080p pelicula completa, descargar Sí, Dios mío, sí (2019) REMUX 1080p SUB Full 1080p gratis en mega.

Sí, Dios mío, sí (2019) REMUX 1080p SUB pelicula full hd, Sí, Dios mío, sí (2019) REMUX 1080p SUB mega latino, Sí, Dios mío, sí (2019) REMUX 1080p SUB 4k latino, Sí, Dios mío, sí (2019) REMUX 1080p SUB pelicula completa, Sí, Dios mío, sí (2019) REMUX 1080p SUB descargar gratis, descargar Sí, Dios mío, sí (2019) REMUX 1080p SUB pelicula latino, Sí, Dios mío, sí (2019) REMUX 1080p SUB 1 link mega, Sí, Dios mío, sí (2019) REMUX 1080p SUB 1 link google drive, Sí, Dios mío, sí (2019) REMUX 1080p SUB hd 1080p latino.
Comentarios 0