×

¿Problemas para descargar con Mozilla, EDGE? Deshabilita la opción "Abrir vinculos en una pestaña nueva" tal como lo muestra ésta imagen.

Shrek Tercero (2007) REMUX 1080p Latino

920 vistas

Información de Shrek Tercero (2007) REMUX 1080p Latino

Datos de la película

  • Calidad: Full 1080p
  • Audio: Se especifica abajo de la Sinopsis
  • Subtitulos: Español Latino SRT- FORZADOS SRT
  • Resolución: 1920x1080p
  • Formato: MKV
  • Codec: H.264
  • Encoder: Melkor
  • Mediainfo: Clic para Mostrar Datos Ver
  • Shrek Tercero (2007) REMUX 1080p Latino.mkv
    Format                      : Matroska
    Format version              : Version 4
    File size                   : 22.8 GiB
    Duration                    : 1 h 32 min
    Overall bit rate mode       : Variable
    Overall bit rate            : 35.1 Mb/s
    Movie name                  : Shrek The Third (2007) CinemaniaHDD.Net
    Encoded date                : UTC 2020-04-20 23:51:10
    Writing application         : mkvmerge v42.0.0 ('Overtime') 64-bit
    Writing library             : libebml v1.3.10 + libmatroska v1.5.2
    Attachments                 : CINEMANIAHD.png

    Video
    ID                          : 1
    Format                      : AVC
    Format/Info                 : Advanced Video Codec
    Format profile              : High@L4.1
    Format settings             : CABAC / 4 Ref Frames
    Format settings, CABAC      : Yes
    Format settings, ReFrames   : 4 frames
    Codec ID                    : V_MPEG4/ISO/AVC
    Duration                    : 1 h 32 min
    Bit rate mode               : Variable
    Bit rate                    : 30.5 Mb/s
    Maximum bit rate            : 33.0 Mb/s
    Width                       : 1 920 pixels
    Height                      : 1 080 pixels
    Display aspect ratio        : 16:9
    Frame rate mode             : Constant
    Frame rate                  : 23.976 (24000/1001) FPS
    Color space                 : YUV
    Chroma subsampling          : 4:2:0
    Bit depth                   : 8 bits
    Scan type                   : Progressive
    Bits/(Pixel*Frame)          : 0.613
    Stream size                 : 19.8 GiB (87%)
    Title                       : REMUX 1080p [CinemaniaHDD]
    Default                     : Yes
    Forced                      : Yes
    Color range                 : Limited
    Color primaries             : BT.709
    Transfer characteristics    : BT.709
    Matrix coefficients         : BT.709

    Audio #1
    ID                          : 2
    Format                      : AC-3
    Format/Info                 : Audio Coding 3
    Commercial name             : Dolby Digital
    Codec ID                    : A_AC3
    Duration                    : 1 h 32 min
    Bit rate mode               : Constant
    Bit rate                    : 640 kb/s
    Channel(s)                  : 6 channels
    Channel layout              : L R C LFE Ls Rs
    Sampling rate               : 48.0 kHz
    Frame rate                  : 31.250 FPS (1536 SPF)
    Bit depth                   : 16 bits
    Compression mode            : Lossy
    Stream size                 : 425 MiB (2%)
    Title                       : Español Latino [CinemaniaHDD]
    Language                    : Spanish
    Service kind                : Complete Main
    Default                     : Yes
    Forced                      : Yes

    Audio #2
    ID                          : 3
    Format                      : MLP FBA
    Format/Info                 : Meridian Lossless Packing FBA
    Commercial name             : Dolby TrueHD
    Codec ID                    : A_TRUEHD
    Duration                    : 1 h 32 min
    Bit rate mode               : Variable
    Bit rate                    : 3 303 kb/s
    Maximum bit rate            : 4 839 kb/s
    Channel(s)                  : 8 channels
    Channel layout              : L R C LFE Ls Rs Lb Rb
    Sampling rate               : 48.0 kHz
    Frame rate                  : 1 200.000 FPS (40 SPF)
    Compression mode            : Lossless
    Stream size                 : 2.14 GiB (9%)
    Title                       : Ingles [CinemaniaHDD]
    Language                    : English
    Default                     : No
    Forced                      : No

    Audio #3
    ID                          : 4
    Format                      : AC-3
    Format/Info                 : Audio Coding 3
    Commercial name             : Dolby Digital
    Codec ID                    : A_AC3
    Duration                    : 1 h 32 min
    Bit rate mode               : Constant
    Bit rate                    : 640 kb/s
    Channel(s)                  : 6 channels
    Channel layout              : L R C LFE Ls Rs
    Sampling rate               : 48.0 kHz
    Frame rate                  : 31.250 FPS (1536 SPF)
    Bit depth                   : 16 bits
    Compression mode            : Lossy
    Stream size                 : 425 MiB (2%)
    Title                       : Ingles AC3 [CinemaniaHDD]
    Language                    : English
    Service kind                : Complete Main
    Default                     : No
    Forced                      : No

    Text #1
    ID                          : 5
    Format                      : UTF-8
    Codec ID                    : S_TEXT/UTF8
    Codec ID/Info               : UTF-8 Plain Text
    Duration                    : 1 h 5 min
    Bit rate                    : 0 b/s
    Count of elements           : 8
    Stream size                 : 103 Bytes (0%)
    Title                       : Forzados-SRT [CinemaniaHDD]
    Language                    : Spanish
    Default                     : Yes
    Forced                      : Yes

    Text #2
    ID                          : 6
    Format                      : UTF-8
    Codec ID                    : S_TEXT/UTF8
    Codec ID/Info               : UTF-8 Plain Text
    Duration                    : 1 h 24 min
    Bit rate                    : 56 b/s
    Count of elements           : 1090
    Stream size                 : 34.8 KiB (0%)
    Title                       : Español-SRT [CinemaniaHDD]
    Language                    : Spanish
    Default                     : No
    Forced                      : No

    Menu
    00:00:00.000                : en:Dinner Theater
    00:03:23.912                : en:Far Far Away
    00:09:35.032                : en:The King Croaks
    00:13:51.372                : en:Fairy Tale Villains Unite
    00:17:31.341                : en:Shrek's Nightmare
    00:25:15.889                : en:Find Arthur
    00:32:16.100                : en:The Party's Over
    00:38:35.730                : en:King Artie
    00:41:17.016                : en:Mr. Merlin
    00:49:15.577                : en:Rapunzel's Betrayal
    00:51:55.237                : en:Magic Trip
    00:56:51.157                : en:Go Go Away
    00:59:24.310                : en:Captured
    01:03:30.264                : en:The Queen Rocks
    01:07:08.274                : en:Team Awesome
    01:10:31.185                : en:Royal Showdown
    01:19:44.279                : en:Happily Ever After, After All
    01:22:24.773                : en:End Credits

  • Peso: 22.8 GiB

Sinopsis

Descargar Shrek Tercero (2007) REMUX 1080p Latino. Shrek se casó con Fiona, pero lo que no tuvo en cuenta es que al casarse con una princesa… tarde o temprano uno termina siendo rey. Cuando su suegro, el Rey Harold, cae enfermo, Shrek se encuentra en riesgo de tener que abandonar su amado pantano por el trono. A menos claro que encuentre un heredero. Junto con Asno y el Gato con Botas, Shrek viaja para en busca del primo de Fiona, Arturo. Mientras, en Muy Muy Lejano, el Principe Encantador recluta un ejército de villanos de cuento para tomar el trono por la fuerza. Pero no cuentan con que Fiona y la Reina Lillian también han reunido su grupo de heroínas de cuento para hacerles frente…

Audio Español Latino AC3 5.1 Bluray – Ingles TrueHD 7.1 + AC3 5.1 Bluray

Ficha técnica

Video trailer de la película

Enlaces de descarga

Rip de Bluray

Descargar Shrek Tercero (2007) REMUX 1080p Latino




Aportes de DPeliculasHDmega la pass es:dpeliculashdmega.org Aportes de CinemaniaHD la pass es:cinemaniahdd.com Aportes recientes:cinemaniahdd.net

Películas relacionadas

descargar Shrek Tercero (2007) REMUX 1080p Latino Full 1080p 1080p gratis, Shrek Tercero (2007) REMUX 1080p Latino Full 1080p mega 1 link, Shrek Tercero (2007) REMUX 1080p Latino Full 1080p pelicula completa, descargar Shrek Tercero (2007) REMUX 1080p Latino Full 1080p gratis en mega.

Shrek Tercero (2007) REMUX 1080p Latino pelicula full hd, Shrek Tercero (2007) REMUX 1080p Latino mega latino, Shrek Tercero (2007) REMUX 1080p Latino 4k latino, Shrek Tercero (2007) REMUX 1080p Latino pelicula completa, Shrek Tercero (2007) REMUX 1080p Latino descargar gratis, descargar Shrek Tercero (2007) REMUX 1080p Latino pelicula latino, Shrek Tercero (2007) REMUX 1080p Latino 1 link mega, Shrek Tercero (2007) REMUX 1080p Latino 1 link google drive, Shrek Tercero (2007) REMUX 1080p Latino hd 1080p latino.
Comentarios 0