×

¿Problemas para descargar con Mozilla, EDGE? Deshabilita la opción "Abrir vinculos en una pestaña nueva" tal como lo muestra ésta imagen.

Shrek Para Siempre (2010) REMUX 1080p Latino

773 vistas

Información de Shrek Para Siempre (2010) REMUX 1080p Latino

Datos de la película

  • Calidad: Full 1080p
  • Audio: Se especifica abajo de la Sinopsis
  • Subtitulos: Español Latino SRT- FORZADOS SRT
  • Resolución: 1920x1080p
  • Formato: MKV
  • Codec: H.264
  • Encoder: Melkor
  • Mediainfo: Clic para Mostrar Datos Ver
  • Shrek Para Siempre (2010) REMUX 1080p Latino.mkv
    Format                      : Matroska
    Format version              : Version 4
    File size                   : 23.0 GiB
    Duration                    : 1 h 33 min
    Overall bit rate mode       : Variable
    Overall bit rate            : 35.4 Mb/s
    Movie name                  : Shrek Forever After (2010) CinemaniaHDD.Net
    Encoded date                : UTC 2020-04-21 00:31:41
    Writing application         : mkvmerge v42.0.0 ('Overtime') 64-bit
    Writing library             : libebml v1.3.10 + libmatroska v1.5.2
    Attachments                 : CINEMANIAHD.png

    Video
    ID                          : 1
    Format                      : AVC
    Format/Info                 : Advanced Video Codec
    Format profile              : High@L4.1
    Format settings             : CABAC / 4 Ref Frames
    Format settings, CABAC      : Yes
    Format settings, ReFrames   : 4 frames
    Codec ID                    : V_MPEG4/ISO/AVC
    Duration                    : 1 h 33 min
    Bit rate mode               : Variable
    Bit rate                    : 31.0 Mb/s
    Maximum bit rate            : 36.0 Mb/s
    Width                       : 1 920 pixels
    Height                      : 1 080 pixels
    Display aspect ratio        : 16:9
    Frame rate mode             : Constant
    Frame rate                  : 23.976 (24000/1001) FPS
    Color space                 : YUV
    Chroma subsampling          : 4:2:0
    Bit depth                   : 8 bits
    Scan type                   : Progressive
    Bits/(Pixel*Frame)          : 0.623
    Stream size                 : 20.2 GiB (87%)
    Title                       : REMUX 1080p [CinemaniaHDD]
    Default                     : Yes
    Forced                      : Yes
    Color range                 : Limited
    Color primaries             : BT.709
    Transfer characteristics    : BT.709
    Matrix coefficients         : BT.709

    Audio #1
    ID                          : 2
    Format                      : AC-3
    Format/Info                 : Audio Coding 3
    Commercial name             : Dolby Digital
    Codec ID                    : A_AC3
    Duration                    : 1 h 33 min
    Bit rate mode               : Constant
    Bit rate                    : 640 kb/s
    Channel(s)                  : 6 channels
    Channel layout              : L R C LFE Ls Rs
    Sampling rate               : 48.0 kHz
    Frame rate                  : 31.250 FPS (1536 SPF)
    Bit depth                   : 16 bits
    Compression mode            : Lossy
    Stream size                 : 427 MiB (2%)
    Title                       : Español Latino [CinemaniaHDD]
    Language                    : Spanish
    Service kind                : Complete Main
    Default                     : Yes
    Forced                      : Yes

    Audio #2
    ID                          : 3
    Format                      : MLP FBA
    Format/Info                 : Meridian Lossless Packing FBA
    Commercial name             : Dolby TrueHD
    Codec ID                    : A_TRUEHD
    Duration                    : 1 h 33 min
    Bit rate mode               : Variable
    Bit rate                    : 3 079 kb/s
    Maximum bit rate            : 4 854 kb/s
    Channel(s)                  : 8 channels
    Channel layout              : L R C LFE Ls Rs Lb Rb
    Sampling rate               : 48.0 kHz
    Frame rate                  : 1 200.000 FPS (40 SPF)
    Compression mode            : Lossless
    Stream size                 : 2.00 GiB (9%)
    Title                       : Ingles [CinemaniaHDD]
    Language                    : English
    Default                     : No
    Forced                      : No

    Audio #3
    ID                          : 4
    Format                      : AC-3
    Format/Info                 : Audio Coding 3
    Commercial name             : Dolby Digital
    Codec ID                    : A_AC3
    Duration                    : 1 h 33 min
    Bit rate mode               : Constant
    Bit rate                    : 640 kb/s
    Channel(s)                  : 6 channels
    Channel layout              : L R C LFE Ls Rs
    Sampling rate               : 48.0 kHz
    Frame rate                  : 31.250 FPS (1536 SPF)
    Bit depth                   : 16 bits
    Compression mode            : Lossy
    Stream size                 : 427 MiB (2%)
    Title                       : Ingles AC3 [CinemaniaHDD]
    Language                    : English
    Service kind                : Complete Main
    Default                     : No
    Forced                      : No

    Text #1
    ID                          : 5
    Format                      : UTF-8
    Codec ID                    : S_TEXT/UTF8
    Codec ID/Info               : UTF-8 Plain Text
    Duration                    : 29 min 21 s
    Bit rate                    : 0 b/s
    Count of elements           : 8
    Stream size                 : 164 Bytes (0%)
    Title                       : Forzados-SRT [CinemaniaHDD]
    Language                    : Spanish
    Default                     : Yes
    Forced                      : Yes

    Text #2
    ID                          : 6
    Format                      : UTF-8
    Codec ID                    : S_TEXT/UTF8
    Codec ID/Info               : UTF-8 Plain Text
    Duration                    : 1 h 22 min
    Bit rate                    : 57 b/s
    Count of elements           : 1075
    Stream size                 : 35.0 KiB (0%)
    Title                       : Español-SRT [CinemaniaHDD]
    Language                    : Spanish
    Default                     : No
    Forced                      : No

    Menu
    00:00:00.000                : :Chapter 1
    00:04:47.704                : :Chapter 2
    00:08:39.853                : :Chapter 3
    00:14:51.641                : :Chapter 4
    00:19:51.107                : :Chapter 5
    00:24:43.232                : :Chapter 6
    00:33:22.250                : :Chapter 7
    00:41:11.386                : :Chapter 8
    00:44:51.189                : :Chapter 9
    00:48:32.368                : :Chapter 10
    00:51:31.547                : :Chapter 11
    00:53:02.304                : :Chapter 12
    00:58:25.877                : :Chapter 13
    01:03:13.665                : :Chapter 14
    01:05:48.778                : :Chapter 15
    01:12:34.392                : :Chapter 16
    01:20:00.337                : :Chapter 17
    01:23:13.739                : :Chapter 18

  • Peso: 23.0 GiB

Sinopsis

Descargar Shrek Para Siempre (2010) REMUX 1080p Latino. En lugar de espantar a los aldeanos como él solía hacerlo, un recluido Shrek ahora accede a autografiar horquillas para siembra. Anhelando los días cuando se sentía un «ogro real», Shrek es embaucado al firmar un pacto con el afable negociador Rumpelstiltskin. De pronto Shrek se encuentra en una retorcida versión alterna de Muy Muy Lejano, donde Fiona es un ogro de caza, Rumpelstiltskin es el rey, Burro nunca ha conocido a Shrek, el Gato con Botas es obeso y perezoso, y Shrek y Fiona no se conocían. Ahora, está en las manos de Shrek deshacer todo lo que hizo con la esperanza de salvar a sus amigos, restaurar su mundo y recuperar a su único y verdadero amor.

Audio Español Latino AC3 5.1 Bluray – Ingles TrueHD 7.1 + AC3 5.1 Bluray

Ficha técnica

Video trailer de la película

Enlaces de descarga

Rip de Bluray

Descargar Shrek Para Siempre (2010) REMUX 1080p Latino




Aportes de DPeliculasHDmega la pass es:dpeliculashdmega.org Aportes de CinemaniaHD la pass es:cinemaniahdd.com

Películas relacionadas

  • Mi amigo el dragón (2016) Full HD 1080p Latino

    Mi amigo el dragón (2016) Full HD 1080p Latino

    2016
    Mi amigo el dragón (2016) Full HD 1080p Latino

    1h 43m 2016

    Descargar Mi amigo el dragón (2016) Full HD 1080p Latino. Durante años el Sr. Meacham, un viejo tallador...

    Director: Joe Nolan

    Género: Aventura

    Actores: William J. Rawbone

  • Mi amigo el dragón (2016) REMUX 1080p Latino

    Mi amigo el dragón (2016) REMUX 1080p Latino

    2016
    Mi amigo el dragón (2016) REMUX 1080p Latino

    1h 43m 2016

    Descargar Mi amigo el dragón (2016) REMUX 1080p Latino. Durante años el Sr. Meacham, un viejo tallador...

    Director: Joe Nolan

    Género: Aventura

    Actores: William J. Rawbone

  • El discurso del Rey (2010) REMUX 1080p Latino

    El discurso del Rey (2010) REMUX 1080p Latino

    2010
    El discurso del Rey (2010) REMUX 1080p Latino

    1h 58m 2010

    Descargar El discurso del Rey (2010) REMUX 1080p Latino. El duque de York se convirtió en rey de Gran...

    Director: Tom Hooper

    Género: Drama

    Actores: Tony Earnshaw

descargar Shrek Para Siempre (2010) REMUX 1080p Latino Full 1080p 1080p gratis, Shrek Para Siempre (2010) REMUX 1080p Latino Full 1080p mega 1 link, Shrek Para Siempre (2010) REMUX 1080p Latino Full 1080p pelicula completa, descargar Shrek Para Siempre (2010) REMUX 1080p Latino Full 1080p gratis en mega.

Shrek Para Siempre (2010) REMUX 1080p Latino pelicula full hd, Shrek Para Siempre (2010) REMUX 1080p Latino mega latino, Shrek Para Siempre (2010) REMUX 1080p Latino 4k latino, Shrek Para Siempre (2010) REMUX 1080p Latino pelicula completa, Shrek Para Siempre (2010) REMUX 1080p Latino descargar gratis, descargar Shrek Para Siempre (2010) REMUX 1080p Latino pelicula latino, Shrek Para Siempre (2010) REMUX 1080p Latino 1 link mega, Shrek Para Siempre (2010) REMUX 1080p Latino 1 link google drive, Shrek Para Siempre (2010) REMUX 1080p Latino hd 1080p latino.
Comentarios 0