Shrek 2 (2004) Full 1080p Latino

1.219 vistas
1 estrella2 estrellas3 estrellas4 estrellas5 estrellas (1 votos, promedio: 5,00 de 5)
Cargando…

Información de Shrek 2 (2004) Full 1080p Latino

Datos de la película

  • Calidad: Full 1080p
  • Audio: Español Latino AC3 5.1 BLURAY - Ingles DTS 5.1 BLURAY
  • Subtitulos: Español Latino PGS - Ingles PGS
  • Resolución: 1920x1080p
  • Formato: MKV
  • Codec: H.264
  • Encoder: Dracarys
  • Mediainfo: Clic para Mostrar Datos Ver
  • Format                                   : Matroska
    Format version                           : Version 4 / Version 2
    File size                                : 4.38 GiB
    Duration                                 : 1 h 32 min
    Overall bit rate                         : 6 782 kb/s
    Movie name                               : CinemaniaHDD.com
    Encoded date                             : UTC 2018-03-22 20:20:02 / UTC 2018-03-22T11:45:22Z
    Writing application                      : mkvmerge v15.0.0 ('Duel with the Devil') 64-bit
    Writing library                          : libebml v1.3.5 + libmatroska v1.4.5 / Lavf57.7.2

    Video
    ID                                       : 1
    Format                                   : AVC
    Format/Info                              : Advanced Video Codec
    Format profile                           : High@L4.1
    Format settings                          : CABAC / 4 Ref Frames
    Format settings, CABAC                   : Yes
    Format settings, RefFrames               : 4 frames
    Codec ID                                 : V_MPEG4/ISO/AVC
    Duration                                 : 1 h 32 min
    Bit rate                                 : 4 498 kb/s
    Width                                    : 1 920 pixels
    Height                                   : 1 080 pixels
    Display aspect ratio                     : 16:9
    Frame rate mode                          : Constant
    Frame rate                               : 23.976 (24000/1001) FPS
    Color space                              : YUV
    Chroma subsampling                       : 4:2:0
    Bit depth                                : 8 bits
    Scan type                                : Progressive
    Bits/(Pixel*Frame)                       : 0.090
    Stream size                              : 2.90 GiB (66%)
    Title                                    : Shrek 2 (2004) Full 1080p Latino
    Writing library                          : x264 core 148 r2708 86b7198
    Encoding settings                        : cabac=1 / ref=4 / deblock=1:0:0 / analyse=0x3:0x133 / me=esa / subme=9 / psy=1 / psy_rd=1.00:0.00 / mixed_ref=1 / me_range=16 / chroma_me=1 / trellis=2 / 8x8dct=1 / cqm=0 / deadzone=21,11 / fast_pskip=1 / chroma_qp_offset=-2 / threads=34 / lookahead_threads=2 / sliced_threads=0 / nr=0 / decimate=1 / interlaced=0 / bluray_compat=0 / constrained_intra=0 / bframes=3 / b_pyramid=2 / b_adapt=2 / b_bias=0 / direct=3 / weightb=1 / open_gop=0 / weightp=2 / keyint=240 / keyint_min=24 / scenecut=40 / intra_refresh=0 / rc_lookahead=60 / rc=crf / mbtree=1 / crf=20.0 / qcomp=0.60 / qpmin=0 / qpmax=69 / qpstep=4 / vbv_maxrate=62500 / vbv_bufsize=78125 / crf_max=0.0 / nal_hrd=none / filler=0 / ip_ratio=1.40 / aq=1:1.00
    Language                                 : English
    Default                                  : Yes
    Forced                                   : No
    Color range                              : Limited
    Color primaries                          : BT.709
    Transfer characteristics                 : BT.709
    Matrix coefficients                      : BT.709
    Statistics Tags Issue                    : mkvmerge v15.0.0 ('Duel with the Devil') 64-bit 2018-03-22 20:20:02 / mkvmerge v15.0.0 ('Duel with the Devil') 64-bit 2018-03-22 20:20:02 / UTC 2018-03-22T11:45:22Z
    FromStats_BitRate                        : 4593351
    FromStats_Duration                       : 01:32:23.330000000
    FromStats_FrameCount                     : 132907
    FromStats_StreamSize                     : 3182808157

    Audio #1
    ID                                       : 2
    Format                                   : AC-3
    Format/Info                              : Audio Coding 3
    Format settings, Endianness              : Big
    Codec ID                                 : A_AC3
    Duration                                 : 1 h 32 min
    Bit rate mode                            : Constant
    Bit rate                                 : 640 kb/s
    Channel(s)                               : 6 channels
    Channel positions                        : Front: L C R, Side: L R, LFE
    Sampling rate                            : 48.0 kHz
    Frame rate                               : 31.250 FPS (1536 SPF)
    Bit depth                                : 16 bits
    Compression mode                         : Lossy
    Stream size                              : 423 MiB (9%)
    Language                                 : Spanish
    Service kind                             : Complete Main
    Default                                  : Yes
    Forced                                   : No
    Statistics Tags Issue                    : mkvmerge v15.0.0 ('Duel with the Devil') 64-bit 2018-03-22 20:20:02 / mkvmerge v15.0.0 ('Duel with the Devil') 64-bit 2018-03-22 20:20:02 / UTC 2018-03-22T11:45:22Z
    FromStats_BitRate                        : 640000
    FromStats_Duration                       : 01:32:23.392000000
    FromStats_FrameCount                     : 173231
    FromStats_StreamSize                     : 443471360

    Audio #2
    ID                                       : 3
    Format                                   : DTS
    Format/Info                              : Digital Theater Systems
    Mode                                     : 16
    Format settings, Endianness              : Big
    Codec ID                                 : A_DTS
    Duration                                 : 1 h 32 min
    Bit rate mode                            : Constant
    Bit rate                                 : 1 509 kb/s
    Channel(s)                               : 6 channels
    Channel positions                        : Front: L C R, Side: L R, LFE
    Sampling rate                            : 48.0 kHz
    Frame rate                               : 93.750 FPS (512 SPF)
    Bit depth                                : 24 bits
    Compression mode                         : Lossy
    Stream size                              : 997 MiB (22%)
    Language                                 : English
    Default                                  : No
    Forced                                   : No
    Statistics Tags Issue                    : mkvmerge v15.0.0 ('Duel with the Devil') 64-bit 2018-03-22 20:20:02 / mkvmerge v15.0.0 ('Duel with the Devil') 64-bit 2018-03-22 20:20:02 / UTC 2018-03-22T11:45:22Z
    FromStats_BitRate                        : 1508999
    FromStats_Duration                       : 01:32:23.350000000
    FromStats_FrameCount                     : 519689
    FromStats_StreamSize                     : 1045614268

    Text #1
    ID                                       : 4
    Format                                   : UTF-8
    Codec ID                                 : S_TEXT/UTF8
    Codec ID/Info                            : UTF-8 Plain Text
    Title                                    : SRT-Forzados
    Language                                 : Spanish
    Default                                  : Yes
    Forced                                   : Yes
    Statistics Tags Issue                    : mkvmerge v15.0.0 ('Duel with the Devil') 64-bit 2018-03-22 20:20:02 / mkvmerge v15.0.0 ('Duel with the Devil') 64-bit 2018-03-22 20:20:02 / UTC 2018-03-22T11:45:22Z
    FromStats_BitRate                        : 0
    FromStats_Duration                       : 01:16:38.725000000
    FromStats_FrameCount                     : 17
    FromStats_StreamSize                     : 341

    Text #2
    ID                                       : 5
    Format                                   : UTF-8
    Codec ID                                 : S_TEXT/UTF8
    Codec ID/Info                            : UTF-8 Plain Text
    Title                                    : SRT-Completos
    Language                                 : Spanish
    Default                                  : No
    Forced                                   : No
    Statistics Tags Issue                    : mkvmerge v15.0.0 ('Duel with the Devil') 64-bit 2018-03-22 20:20:02 / mkvmerge v15.0.0 ('Duel with the Devil') 64-bit 2018-03-22 20:20:02 / UTC 2018-03-22T11:45:22Z
    FromStats_BitRate                        : 61
    FromStats_Duration                       : 01:24:12.770000000
    FromStats_FrameCount                     : 1047
    FromStats_StreamSize                     : 39140

    Text #3
    ID                                       : 6
    Format                                   : PGS
    Muxing mode                              : zlib
    Codec ID                                 : S_HDMV/PGS
    Codec ID/Info                            : Picture based subtitle format used on BDs/HD-DVDs
    Title                                    : PGS-Forzados
    Language                                 : Spanish
    Default                                  : No
    Forced                                   : No
    Statistics Tags Issue                    : mkvmerge v15.0.0 ('Duel with the Devil') 64-bit 2018-03-22 20:20:02 / mkvmerge v15.0.0 ('Duel with the Devil') 64-bit 2018-03-22 20:20:02 / UTC 2018-03-22T11:45:22Z
    FromStats_BitRate                        : 758
    FromStats_Duration                       : 01:16:38.724000000
    FromStats_FrameCount                     : 34
    FromStats_StreamSize                     : 436185

    Text #4
    ID                                       : 7
    Format                                   : PGS
    Muxing mode                              : zlib
    Codec ID                                 : S_HDMV/PGS
    Codec ID/Info                            : Picture based subtitle format used on BDs/HD-DVDs
    Title                                    : PGS-Completos
    Language                                 : Spanish
    Default                                  : No
    Forced                                   : No
    Statistics Tags Issue                    : mkvmerge v15.0.0 ('Duel with the Devil') 64-bit 2018-03-22 20:20:02 / mkvmerge v15.0.0 ('Duel with the Devil') 64-bit 2018-03-22 20:20:02 / UTC 2018-03-22T11:45:22Z
    FromStats_BitRate                        : 55689
    FromStats_Duration                       : 01:24:12.761000000
    FromStats_FrameCount                     : 2094
    FromStats_StreamSize                     : 35173077

    Text #5
    ID                                       : 8
    Format                                   : PGS
    Muxing mode                              : zlib
    Codec ID                                 : S_HDMV/PGS
    Codec ID/Info                            : Picture based subtitle format used on BDs/HD-DVDs
    Title                                    : PGS-Completos
    Language                                 : English
    Default                                  : No
    Forced                                   : No
    Statistics Tags Issue                    : mkvmerge v15.0.0 ('Duel with the Devil') 64-bit 2018-03-22 20:20:02 / mkvmerge v15.0.0 ('Duel with the Devil') 64-bit 2018-03-22 20:20:02 / UTC 2018-03-22T11:45:22Z
    FromStats_BitRate                        : 49659
    FromStats_Duration                       : 01:24:12.464000000
    FromStats_FrameCount                     : 2075
    FromStats_StreamSize                     : 31362814

    Menu
    00:00:00.000                             : :Chapter 1
    00:02:32.778                             : :Chapter 2
    00:08:41.980                             : :Chapter 3
    00:11:09.502                             : :Chapter 4
    00:18:54.425                             : :Chapter 5
    00:27:13.507                             : :Chapter 6
    00:30:23.613                             : :Chapter 7
    00:32:37.664                             : :Chapter 8
    00:40:46.277                             : :Chapter 9
    00:48:07.843                             : :Chapter 10
    00:52:30.606                             : :Chapter 11
    00:56:22.421                             : :Chapter 12
    01:00:45.308                             : :Chapter 13
    01:03:37.731                             : :Chapter 14
    01:04:58.228                             : :Chapter 15
    01:07:23.498                             : :Chapter 16
    01:10:50.747                             : :Chapter 17
    01:14:20.373                             : :Chapter 18
    01:18:42.259                             : :Chapter 19
    01:22:09.174                             : :Chapter 20

  • Peso: 4.38 GiB

Sinopsis

Cuando Shrek y la princesa Fiona regresan de su luna de miel, los padres de ella los invitan a visitar el reino de Muy Muy Lejano para celebrar la boda. Para Shrek, al que nunca abandona su fiel amigo Asno, esto constituye un gran problema. Los padres de Fiona, por su parte, no esperaban que su yerno tuviera un aspecto semejante y, mucho menos, que su hija hubiera cambiado tanto. Todo esto trastoca los planes del rey respecto al futuro del reino. Pero entonces entran en escena la maquiavélica Hada Madrina, su arrogante hijo el Príncipe Encantador y un minino muy especial: el Gato con Botas, experto cazador de ogros.

Ficha técnica

Video trailer de la película

Enlaces de descarga

Rip de Bluray

Descargar Shrek 2 (2004) Full 1080p Latino




Aportes de DPeliculasHDmega la pass es:dpeliculashdmega.org Aportes de CinemaniaHD la pass es:cinemaniahdd.com

Películas relacionadas

  • Godzilla (2014) Full 1080p Latino

    2014
    Godzilla (2014) Full 1080p Latino

    4.2 2h 3m 2014

    Descargar Godzilla (2014) Full 1080p Latino, Mega, Google Drive, Torrent. Gareth Edwards dirige este...

    Director: Jessica Clothier

    Género: Acción

    Actores: Yuki Morita

  • Un pequeño favor (2018) Full 1080p Latino

    2018
    Un pequeño favor (2018) Full 1080p Latino

    5.0 1h 57m 2018

    Descargar Un pequeño favor (2018) Full 1080p Latino, Mega, Google Drive, Torrent. Stephanie es una joven...

    Director: Paul Feig

    Género: Crimen

    Actores: Zach Smadu

Comentarios 2
  • rodrigo - 11 mayo, 2018

    por que no se puede abrir archivos en mega

    • dpelis - 13 mayo, 2018

      seleccionar todos los enlaces de mega y usar myponi o jdownloader