Show Me a Hero (TV Mini-Series 2015) REMUX 1080p Latino – CMHDD

41 vistas
1 estrella2 estrellas3 estrellas4 estrellas5 estrellas (Ninguna valoración todavía)
Cargando...

Información de Show Me a Hero (TV Mini-Series 2015) REMUX 1080p Latino – CMHDD

Datos de la película

  • Calidad: Full 1080p
  • Audio: Español Latino DTS 2.0 BLURAY - Ingles DTS 5.1 BLURAY
  • Subtitulos: Español Latino PGS
  • Resolución: 1920x1080p
  • Formato: MKV
  • Codec: H.264
  • Encoder: Dracarys
  • Mediainfo: Clic para Mostrar Datos Ver
  • Format                      : Matroska
    Format version              : Version 4
    File size                   : 12.1 GiB
    Duration                    : 55 min 47 s
    Overall bit rate mode       : Variable
    Overall bit rate            : 31.1 Mb/s
    Movie name                  : Show Me a Hero (2015) [E01]  REMUX 1080p Latino - CMHDD
    Encoded date                : UTC 2021-02-27 18:20:14
    Writing application         : mkvmerge v51.0.0 ('I Wish') 64-bit
    Writing library             : libebml v1.4.0 + libmatroska v1.6.2

    Video
    ID                          : 1
    Format                      : AVC
    Format/Info                 : Advanced Video Codec
    Format profile              : High@L4.1
    Format settings             : CABAC / 4 Ref Frames
    Format settings, CABAC      : Yes
    Format settings, Reference  : 4 frames
    Codec ID                    : V_MPEG4/ISO/AVC
    Duration                    : 55 min 47 s
    Bit rate mode               : Variable
    Bit rate                    : 26.8 Mb/s
    Maximum bit rate            : 38.0 Mb/s
    Width                       : 1 920 pixels
    Height                      : 1 080 pixels
    Display aspect ratio        : 16:9
    Frame rate mode             : Constant
    Frame rate                  : 23.976 (24000/1001) FPS
    Color space                 : YUV
    Chroma subsampling          : 4:2:0
    Bit depth                   : 8 bits
    Scan type                   : Progressive
    Bits/(Pixel*Frame)          : 0.539
    Stream size                 : 10.4 GiB (86%)
    Default                     : Yes
    Forced                      : No

    Audio #1
    ID                          : 2
    Format                      : DTS XLL
    Format/Info                 : Digital Theater Systems
    Commercial name             : DTS-HD Master Audio
    Codec ID                    : A_DTS
    Duration                    : 55 min 47 s
    Bit rate mode               : Variable
    Bit rate                    : 3 578 kb/s
    Channel(s)                  : 6 channels
    Channel layout              : C L R Ls Rs LFE
    Sampling rate               : 48.0 kHz
    Frame rate                  : 93.750 FPS (512 SPF)
    Bit depth                   : 24 bits
    Compression mode            : Lossless
    Stream size                 : 1.39 GiB (11%)
    Language                    : English
    Default                     : No
    Forced                      : No

    Audio #2
    ID                          : 3
    Format                      : DTS
    Format/Info                 : Digital Theater Systems
    Codec ID                    : A_DTS
    Duration                    : 55 min 47 s
    Bit rate mode               : Constant
    Bit rate                    : 768 kb/s
    Channel(s)                  : 2 channels
    Channel layout              : Lt Rt
    Sampling rate               : 48.0 kHz
    Frame rate                  : 93.750 FPS (512 SPF)
    Bit depth                   : 24 bits
    Compression mode            : Lossy
    Stream size                 : 306 MiB (2%)
    Language                    : Spanish
    Default                     : Yes
    Forced                      : No

    Text
    ID                          : 4
    Format                      : PGS
    Muxing mode                 : zlib
    Codec ID                    : S_HDMV/PGS
    Codec ID/Info               : Picture based subtitle format used on BDs/HD-DVDs
    Duration                    : 51 min 37 s
    Bit rate                    : 45.7 kb/s
    Count of elements           : 1584
    Stream size                 : 16.9 MiB (0%)
    Language                    : Spanish
    Default                     : No
    Forced                      : No

  • Peso: 73.8 GiB

Sinopsis

‘Show Me A Hero’ es una miniserie ambientada en al localidad de Yonkers, Nueva York. Esta nueva producción desarrollada por HBO está basada en el libro del mismo nombre de la periodista Lisa Belkin. Se trata de una historia que narra la vida de Nicholas Wasicsko, que se convirtió en alcalde de Yonkers con 28 años durante una fuerte crisis económica de la ciudad. Tras ganar las elecciones en 1987, Wasicsko se vio inmerso en una cuestión racial delicada cuando los tribunales ordenaron la construcción de viviendas sociales de la ciudad con el fin de resolver la segregación ilegal impuesta. Esto dividió a la sociedad en una batalla de racismo, miedo, crimen y política.

En el camino se producirán toda una serie de diferentes sucesos entre los personajes, desde un joven alcalde, que se enfrenta a una orden judicial federal, pasando por los problemas que viven unas madres solteras desarraigadas hasta la oposición de los residentes ante la nueva situación. Se trata de una miniserie que explora conceptos de la sociedad.

Ficha técnica

  • Titulo original: Show Me a Hero
  • Fecha de lanzamiento: 16-08-2015 (US)
  • Director: David Simon
  • Género: Crimen, Drama, Historia
  • Puntuación: 0.0 0 votos
  • Duración:
    1h 0m

Video trailer de la película

Enlaces de descarga

Rip de Bluray

Descargar Show Me a Hero (TV Mini-Series 2015) REMUX 1080p Latino – CMHDD


Aportes de DPeliculasHDmega la pass es:dpeliculashdmega.org Aportes de CinemaniaHD la pass es:cinemaniahdd.com
Guardado en : Crimen , Drama , Historia

Películas relacionadas

  • Sola (2020) HD 1080p Latino

    Sola (2020) HD 1080p Latino

    2020
    Sola (2020) HD 1080p Latino

    0.0 1h 40m 2020

    Descargar Sola (2020) HD 1080p Latino. Una mujer viuda que viaja sola es secuestrada por un asesino a...

    Director: John Hyams

    Género: Drama

    Actores: Shelly Lipkin

  • Sola (2020) REMUX 1080p Latino

    Sola (2020) REMUX 1080p Latino

    2020
    Sola (2020) REMUX 1080p Latino

    5.0 1h 40m 2020

    Descargar Sola (2020) REMUX 1080p Latino. Una mujer viuda que viaja sola es secuestrada por un asesino...

    Director: John Hyams

    Género: Drama

    Actores: Shelly Lipkin

  • La Red De Corrupcion (2019) HD 1080p Latino

    La Red De Corrupcion (2019) HD 1080p Latino

    2019
    La Red De Corrupcion (2019) HD 1080p Latino

    5.0 1h 45m 2019

    Descargar La Red De Corrupcion (2019) HD 1080p Latino. Con los Juegos Olímpicos de 2012 de Londres...

    Director: Ron Scalpello

    Género: Crimen

    Actores: Timothy Spall

  • La Red De Corrupcion (2019) REMUX 1080p Latino

    La Red De Corrupcion (2019) REMUX 1080p Latino

    2019
    La Red De Corrupcion (2019) REMUX 1080p Latino

    5.0 1h 45m 2019

    Descargar La Red De Corrupcion (2019) REMUX 1080p Latino. Con los Juegos Olímpicos de 2012 de Londres...

    Director: Ron Scalpello

    Género: Crimen

    Actores: Timothy Spall

  • Chop Chop (2020) AMZN WEB-DL 1080p Latino

    Chop Chop (2020) AMZN WEB-DL 1080p Latino

    2020
    Chop Chop (2020) AMZN WEB-DL 1080p Latino

    5.0 1h 21m 2020

    Una pareja se involucra con una banda de criminales endurecidos después de sobrevivir a un ataque de...

    Director: Rony Patel

    Género: Crimen

    Actores: Jake Taylor

Show Me a Hero (TV Mini-Series 2015) REMUX 1080p Latino – CMHDD pelicula full hd, Show Me a Hero (TV Mini-Series 2015) REMUX 1080p Latino – CMHDD mega latino, Show Me a Hero (TV Mini-Series 2015) REMUX 1080p Latino – CMHDD 4k latino, Show Me a Hero (TV Mini-Series 2015) REMUX 1080p Latino – CMHDD pelicula completa, Show Me a Hero (TV Mini-Series 2015) REMUX 1080p Latino – CMHDD descargar gratis, descargar Show Me a Hero (TV Mini-Series 2015) REMUX 1080p Latino – CMHDD pelicula latino, Show Me a Hero (TV Mini-Series 2015) REMUX 1080p Latino – CMHDD 1 link mega, Show Me a Hero (TV Mini-Series 2015) REMUX 1080p Latino – CMHDD 1 link google drive, Show Me a Hero (TV Mini-Series 2015) REMUX 1080p Latino – CMHDD hd 1080p latino.
Comentarios 0