Show Dogs (2018) Full 1080p Latino

1.165 vistas
1 estrella2 estrellas3 estrellas4 estrellas5 estrellas (3 votos, promedio: 3,67 de 5)
Cargando…

Información de Show Dogs (2018) Full 1080p Latino

Datos de la película

  • Calidad: Full 1080p
  • Audio: Español Latino DTS 5.1 BLURAY - Ingles DTS 5.1 BLURAY
  • Subtitulos: Español Latino PGS - Ingles PGS
  • Resolución: 1920x1080p
  • Formato: MKV
  • Codec: H.264
  • Encoder: Dracarys
  • Mediainfo: Clic para Mostrar Datos Ver
  • Format                                   : Matroska
    Format version                           : Version 4 / Version 2
    File size                                : 6.29 GiB
    Duration                                 : 1 h 30 min
    Overall bit rate                         : 9 925 kb/s
    Movie name                               : CinemaniaHDD.net
    Encoded date                             : UTC 2018-08-15 03:59:51 / UTC 2018-08-14T05:14:55Z
    Writing application                      : mkvmerge v15.0.0 ('Duel with the Devil') 64-bit
    Writing library                          : libebml v1.3.5 + libmatroska v1.4.5 / Lavf57.7.2

    Video
    ID                                       : 1
    Format                                   : AVC
    Format/Info                              : Advanced Video Codec
    Format profile                           : High@L4.1
    Format settings                          : CABAC / 4 Ref Frames
    Format settings, CABAC                   : Yes
    Format settings, RefFrames               : 4 frames
    Codec ID                                 : V_MPEG4/ISO/AVC
    Duration                                 : 1 h 30 min
    Bit rate                                 : 7 451 kb/s
    Width                                    : 1 920 pixels
    Height                                   : 1 080 pixels
    Display aspect ratio                     : 16:9
    Frame rate mode                          : Constant
    Frame rate                               : 23.976 (24000/1001) FPS
    Color space                              : YUV
    Chroma subsampling                       : 4:2:0
    Bit depth                                : 8 bits
    Scan type                                : Progressive
    Bits/(Pixel*Frame)                       : 0.150
    Stream size                              : 4.72 GiB (75%)
    Title                                    : Show Dogs (2018) Full 1080p Latino
    Writing library                          : x264 core 148 r2708 86b7198
    Encoding settings                        : cabac=1 / ref=4 / deblock=1:0:0 / analyse=0x3:0x133 / me=esa / subme=10 / psy=1 / psy_rd=1.00:0.00 / mixed_ref=1 / me_range=24 / chroma_me=1 / trellis=2 / 8x8dct=1 / cqm=0 / deadzone=21,11 / fast_pskip=1 / chroma_qp_offset=-2 / threads=34 / lookahead_threads=5 / sliced_threads=0 / nr=0 / decimate=1 / interlaced=0 / bluray_compat=0 / constrained_intra=0 / bframes=8 / b_pyramid=2 / b_adapt=2 / b_bias=0 / direct=3 / weightb=1 / open_gop=0 / weightp=2 / keyint=240 / keyint_min=24 / scenecut=40 / intra_refresh=0 / rc_lookahead=60 / rc=crf / mbtree=1 / crf=20.0 / qcomp=0.60 / qpmin=0 / qpmax=69 / qpstep=4 / vbv_maxrate=62500 / vbv_bufsize=78125 / crf_max=0.0 / nal_hrd=none / filler=0 / ip_ratio=1.40 / aq=1:1.00
    Language                                 : English
    Default                                  : Yes
    Forced                                   : No
    Color range                              : Limited
    Color primaries                          : BT.709
    Transfer characteristics                 : BT.709
    Matrix coefficients                      : BT.709
    Statistics Tags Issue                    : mkvmerge v15.0.0 ('Duel with the Devil') 64-bit 2018-08-15 03:59:51 / mkvmerge v15.0.0 ('Duel with the Devil') 64-bit 2018-08-15 03:59:51 / UTC 2018-08-14T05:14:55Z
    FromStats_BitRate                        : 7613640
    FromStats_Duration                       : 01:30:45.440000000
    FromStats_FrameCount                     : 130560
    FromStats_StreamSize                     : 5182452854

    Audio #1
    ID                                       : 2
    Format                                   : DTS
    Format/Info                              : Digital Theater Systems
    Mode                                     : 16
    Format settings, Endianness              : Big
    Codec ID                                 : A_DTS
    Duration                                 : 1 h 30 min
    Bit rate mode                            : Constant
    Bit rate                                 : 768 kb/s
    Channel(s)                               : 6 channels
    Channel positions                        : Front: L C R, Side: L R, LFE
    Sampling rate                            : 48.0 kHz
    Frame rate                               : 93.750 FPS (512 SPF)
    Bit depth                                : 24 bits
    Compression mode                         : Lossy
    Stream size                              : 499 MiB (8%)
    Language                                 : Spanish
    Default                                  : Yes
    Forced                                   : No
    Statistics Tags Issue                    : mkvmerge v15.0.0 ('Duel with the Devil') 64-bit 2018-08-15 03:59:51 / mkvmerge v15.0.0 ('Duel with the Devil') 64-bit 2018-08-15 03:59:51 / UTC 2018-08-14T05:14:55Z
    FromStats_BitRate                        : 767999
    FromStats_Duration                       : 01:30:45.430000000
    FromStats_FrameCount                     : 510509
    FromStats_StreamSize                     : 522761216

    Audio #2
    ID                                       : 3
    Format                                   : DTS
    Format/Info                              : Digital Theater Systems
    Mode                                     : 16
    Format settings, Endianness              : Big
    Codec ID                                 : A_DTS
    Duration                                 : 1 h 30 min
    Bit rate mode                            : Constant
    Bit rate                                 : 1 509 kb/s
    Channel(s)                               : 6 channels
    Channel positions                        : Front: L C R, Side: L R, LFE
    Sampling rate                            : 48.0 kHz
    Frame rate                               : 93.750 FPS (512 SPF)
    Bit depth                                : 24 bits
    Compression mode                         : Lossy
    Stream size                              : 980 MiB (15%)
    Language                                 : English
    Default                                  : No
    Forced                                   : No
    Statistics Tags Issue                    : mkvmerge v15.0.0 ('Duel with the Devil') 64-bit 2018-08-15 03:59:51 / mkvmerge v15.0.0 ('Duel with the Devil') 64-bit 2018-08-15 03:59:51 / UTC 2018-08-14T05:14:55Z
    FromStats_BitRate                        : 1508999
    FromStats_Duration                       : 01:30:45.430000000
    FromStats_FrameCount                     : 510509
    FromStats_StreamSize                     : 1027144108

    Text #1
    ID                                       : 4
    Format                                   : PGS
    Muxing mode                              : zlib
    Codec ID                                 : S_HDMV/PGS
    Codec ID/Info                            : Picture based subtitle format used on BDs/HD-DVDs
    Language                                 : English
    Default                                  : No
    Forced                                   : No
    Statistics Tags Issue                    : mkvmerge v15.0.0 ('Duel with the Devil') 64-bit 2018-08-15 03:59:51 / mkvmerge v15.0.0 ('Duel with the Devil') 64-bit 2018-08-15 03:59:51 / UTC 2018-08-14T05:14:55Z
    FromStats_BitRate                        : 61488
    FromStats_Duration                       : 01:24:08.085000000
    FromStats_FrameCount                     : 3212
    FromStats_StreamSize                     : 38800165

    Text #2
    ID                                       : 5
    Format                                   : PGS
    Muxing mode                              : zlib
    Codec ID                                 : S_HDMV/PGS
    Codec ID/Info                            : Picture based subtitle format used on BDs/HD-DVDs
    Language                                 : Spanish
    Default                                  : No
    Forced                                   : No
    Statistics Tags Issue                    : mkvmerge v15.0.0 ('Duel with the Devil') 64-bit 2018-08-15 03:59:51 / mkvmerge v15.0.0 ('Duel with the Devil') 64-bit 2018-08-15 03:59:51 / UTC 2018-08-14T05:14:55Z
    FromStats_BitRate                        : 48884
    FromStats_Duration                       : 01:29:21.648000000
    FromStats_FrameCount                     : 2938
    FromStats_StreamSize                     : 32762524

    Text #3
    ID                                       : 6
    Format                                   : PGS
    Muxing mode                              : zlib
    Codec ID                                 : S_HDMV/PGS
    Codec ID/Info                            : Picture based subtitle format used on BDs/HD-DVDs
    Title                                    : Forzados
    Language                                 : Spanish
    Default                                  : No
    Forced                                   : No
    Statistics Tags Issue                    : mkvmerge v15.0.0 ('Duel with the Devil') 64-bit 2018-08-15 03:59:51 / mkvmerge v15.0.0 ('Duel with the Devil') 64-bit 2018-08-15 03:59:51 / UTC 2018-08-14T05:14:55Z
    FromStats_BitRate                        : 446
    FromStats_Duration                       : 01:21:39.228000000
    FromStats_FrameCount                     : 26
    FromStats_StreamSize                     : 273192

    Menu
    00:00:00.000                             : :Chapter 1
    00:06:56.666                             : :Chapter 2
    00:11:53.671                             : :Chapter 3
    00:15:24.799                             : :Chapter 4
    00:18:05.418                             : :Chapter 5
    00:21:21.489                             : :Chapter 6
    00:26:12.237                             : :Chapter 7
    00:29:26.515                             : :Chapter 8
    00:34:33.113                             : :Chapter 9
    00:40:10.533                             : :Chapter 10
    00:45:16.881                             : :Chapter 11
    00:52:45.245                             : :Chapter 12
    00:56:24.548                             : :Chapter 13
    01:00:49.354                             : :Chapter 14
    01:03:03.488                             : :Chapter 15
    01:08:05.623                             : :Chapter 16
    01:11:13.478                             : :Chapter 17
    01:13:22.982                             : :Chapter 18
    01:19:36.730                             : :Chapter 19
    01:23:37.513                             : :Chapter 20

  • Peso: 6.29 GiB

Sinopsis

Un detective encuentra aventuras con su improbable compañero, un policía canino que tiene que esconderse en la exposición canina más exclusiva del mundo.

Ficha técnica

  • Titulo original: Show Dogs
  • Fecha de lanzamiento: 10-05-2018 (United States of America)
  • Director: Raja Gosnell
  • Género: Comedia, FULL 1080p Plateadas
  • Puntuación: 3.7 3 votos
  • Duración:
    1 h 30 min

Video trailer de la película

Enlaces de descarga

Rip de Bluray

Descargar Show Dogs (2018) Full 1080p Latino




Aportes de DPeliculasHDmega la pass es:dpeliculashdmega.org Aportes de CinemaniaHD la pass es:cinemaniahdd.com
Guardado en : Comedia , FULL 1080p Plateadas

Películas relacionadas

  • Ni en tus sueños (2010) Full 1080p Latino

    2010
    Ni en tus sueños (2010) Full 1080p Latino

    0.0 1h 44m 2010

    Descargar Ni en tus sueños (2010) Full 1080p Latino, Mega, Google Drive. Kirk (Jay Baruchel, "Tropic...

    Director: Richard L. Fox

    Género: Comedia

    Actores: Yan Xi

  • Ni en tus sueños (2010) 1080p Latino

    2010
    Ni en tus sueños (2010) 1080p Latino

    0.0 1h 44m 2010

    Descargar Ni en tus sueños (2010) 1080p Latino, Mega, Google Drive. Kirk (Jay Baruchel, "Tropic Thunder")...

    Director: Richard L. Fox

    Género: Comedia

    Actores: Yan Xi

  • La Chica de La Capa Roja (2011) Full 1080p Latino

    2011
    La Chica de La Capa Roja (2011) Full 1080p Latino

    4.7 1h 40m 2011

    Descargar La Chica de La Capa Roja (2011) Full 1080p Latino, Mega, Google Drive. La joven Valerie se...

    Director: Kimi Webber

    Género: Fantasía

    Actores: Virginia Madsen

  • Soy el número cuatro (2011) Full 1080p Latino

    2011
    Soy el número cuatro (2011) Full 1080p Latino

    0.0 1h 42m 2011

    Descargar Soy el número cuatro (2011) Full 1080p Latino, Mega, Google Drive. Aunque tenga la apariencia...

    Director: D.J. Caruso

    Género: Acción

    Actores: Zoe Simek

Comentarios 0