×

¿Problemas para descargar con Mozilla, EDGE? Deshabilita la opción "Abrir vinculos en una pestaña nueva" tal como lo muestra ésta imagen.

Shotgun Wedding (2022) AMZN WEB-DL 1080p Latino

242 vistas

Información de Shotgun Wedding (2022) AMZN WEB-DL 1080p Latino

Datos de la película

  • Calidad: 1080p
  • Audio: Español Latino AC3 5.1 WEB-DL - Ingles AC3 5.1 WEB-DL
  • Subtitulos: Español Latino SRT- FORZADOS SRT
  • Resolución: 1920x800
  • Formato: MKV
  • Codec: H.264
  • Encoder: cinemaniahdd
  • Mediainfo: Clic para Mostrar Datos Ver
  • Shotgun Wedding (2022) AMZN WEB-DL 1080p Latino [CNMNHDD].mkv Format                      : Matroska Format version              : Version 4 File size                   : 6.57 GiB Duration                    : 1 h 41 min Overall bit rate            : 9 266 kb/s Movie name                  : Shotgun Wedding (2022) [1080p] - CinemaniaHDD.Net Encoded date                : UTC 2023-01-27 00:25:24 Writing application         : mkvmerge v56.1.0 ('My Friend') 64-bit Writing library             : libebml v1.4.2 + libmatroska v1.6.4 Video ID                          : 1 Format                      : AVC Format/Info                 : Advanced Video Codec Format profile              : High@L4 Format settings             : CABAC / 4 Ref Frames Format settings, CABAC      : Yes Format settings, Reference  : 4 frames Codec ID                    : V_MPEG4/ISO/AVC Duration                    : 1 h 41 min Bit rate mode               : Constant Bit rate                    : 7 343 kb/s Nominal bit rate            : 10 000 kb/s Width                       : 1 920 pixels Height                      : 800 pixels Display aspect ratio        : 2.40:1 Frame rate mode             : Constant Frame rate                  : 23.976 (24000/1001) FPS Color space                 : YUV Chroma subsampling          : 4:2:0 Bit depth                   : 8 bits Scan type                   : Progressive Bits/(Pixel*Frame)          : 0.199 Stream size                 : 5.21 GiB (79%) Title                       : CinemaniaHDD Default                     : Yes Forced                      : No Color range                 : Limited Color primaries             : BT.709 Transfer characteristics    : BT.709 Matrix coefficients         : BT.709 Audio #1 ID                          : 2 Format                      : AC-3 Format/Info                 : Audio Coding 3 Commercial name             : Dolby Digital Codec ID                    : A_AC3 Duration                    : 1 h 41 min Bit rate mode               : Constant Bit rate                    : 640 kb/s Channel(s)                  : 6 channels Channel layout              : L R C LFE Ls Rs Sampling rate               : 48.0 kHz Frame rate                  : 31.250 FPS (1536 SPF) Compression mode            : Lossy Stream size                 : 465 MiB (7%) Title                       : Español latino [CinemaniaHDD] Language                    : Spanish Service kind                : Complete Main Default                     : Yes Forced                      : No Audio #2 ID                          : 3 Format                      : E-AC-3 Format/Info                 : Enhanced AC-3 Commercial name             : Dolby Digital Plus Codec ID                    : A_EAC3 Duration                    : 1 h 41 min Bit rate mode               : Constant Bit rate                    : 640 kb/s Channel(s)                  : 6 channels Channel layout              : L R C LFE Ls Rs Sampling rate               : 48.0 kHz Frame rate                  : 31.250 FPS (1536 SPF) Compression mode            : Lossy Stream size                 : 465 MiB (7%) Title                       : Español latino / E-AC3 [CinemaniaHDD] Language                    : Spanish Service kind                : Complete Main Default                     : No Forced                      : No Audio #3 ID                          : 4 Format                      : E-AC-3 Format/Info                 : Enhanced AC-3 Commercial name             : Dolby Digital Plus Codec ID                    : A_EAC3 Duration                    : 1 h 41 min Bit rate mode               : Constant Bit rate                    : 640 kb/s Channel(s)                  : 6 channels Channel layout              : L R C LFE Ls Rs Sampling rate               : 48.0 kHz Frame rate                  : 31.250 FPS (1536 SPF) Compression mode            : Lossy Stream size                 : 465 MiB (7%) Title                       : Inglés [CinemaniaHDD] Language                    : English Service kind                : Complete Main Default                     : No Forced                      : No Text #1 ID                          : 5 Format                      : UTF-8 Codec ID                    : S_TEXT/UTF8 Codec ID/Info               : UTF-8 Plain Text Duration                    : 1 h 23 min Bit rate                    : 1 b/s Count of elements           : 36 Stream size                 : 983 Bytes (0%) Title                       : Forzados [CinemaniaHDD] Language                    : Spanish Default                     : Yes Forced                      : Yes Text #2 ID                          : 6 Format                      : UTF-8 Codec ID                    : S_TEXT/UTF8 Codec ID/Info               : UTF-8 Plain Text Duration                    : 1 h 39 min Bit rate                    : 59 b/s Count of elements           : 1455 Stream size                 : 43.1 KiB (0%) Title                       : Español latino [CinemaniaHDD] Language                    : Spanish Default                     : No Forced                      : No Text #3 ID                          : 7 Format                      : UTF-8 Codec ID                    : S_TEXT/UTF8 Codec ID/Info               : UTF-8 Plain Text Duration                    : 1 h 34 min Bit rate                    : 89 b/s Count of elements           : 1946 Stream size                 : 62.2 KiB (0%) Title                       : Inglés [CinemaniaHDD] Language                    : English Default                     : No Forced                      : No  
  • Peso: 6.57 GiB

Sinopsis

Darcy y Tom reúnen a sus familias para la boda de destino definitiva, pero cuando toman como rehenes a todo el grupo, «‘Til Death Do Us Part» adquiere un significado completamente nuevo en esta hilarante aventura llena de adrenalina en la que Darcy y Tom deben salvar a sus seres queridos. si no se matan entre ellos primero.

Ficha técnica

  • Titulo original: Shotgun Wedding
  • Fecha de lanzamiento: 28-12-2022 (Dominican Republic, United States of America)
  • Director: Jason Moore
  • Género: Acción, Comedia

Video trailer de la película

Enlaces de descarga

Rip de Bluray

Descargar Shotgun Wedding (2022) AMZN WEB-DL 1080p Latino




Aportes de DPeliculasHDmega la pass es:dpeliculashdmega.org Aportes de CinemaniaHD la pass es:cinemaniahdd.com Aportes recientes:cinemaniahdd.net
Guardado en : Acción , Comedia

Películas relacionadas

  • Players (2024) NF WEB-DL 1080p Latino

    Players (2024) NF WEB-DL 1080p Latino

    2024
    Players (2024) NF WEB-DL 1080p Latino

    1h 45m 2024

    Descargar Players (2024) NF WEB-DL 1080p Latino. Una periodista deportiva neoyorquina con un ingenioso...

    Director: Trish Sie

    Género: Comedia

    Actores: Veraalba Santa

  • Combate clandestino (2024) AMZN WEB-DL 1080p Latino

    Combate clandestino (2024) AMZN WEB-DL 1080p Latino

    2024
    Combate clandestino (2024) AMZN WEB-DL 1080p Latino

    1h 30m 2024

    Descargar Combate clandestino (2024) AMZN WEB-DL 1080p Latino. Un ex soldado a la deriva se convierte...

    Director: Christian Sesma

    Género: Acción

    Actores: Tyler Wombles

  • ¡Patos! (2023) HD 1080p Latino

    ¡Patos! (2023) HD 1080p Latino

    2023
    ¡Patos! (2023) HD 1080p Latino

    1h 23m 2023

    Descargar ¡Patos! (2023) HD 1080p Latino. Después de que una familia de patos migratorios aterriza...

    Director: Guy-Laurent Homsy

    Género: Acción

    Actores: Zeno Robinson

descargar Shotgun Wedding (2022) AMZN WEB-DL 1080p Latino 1080p 1080p gratis, Shotgun Wedding (2022) AMZN WEB-DL 1080p Latino 1080p mega 1 link, Shotgun Wedding (2022) AMZN WEB-DL 1080p Latino 1080p pelicula completa, descargar Shotgun Wedding (2022) AMZN WEB-DL 1080p Latino 1080p gratis en mega.

Shotgun Wedding (2022) AMZN WEB-DL 1080p Latino pelicula full hd, Shotgun Wedding (2022) AMZN WEB-DL 1080p Latino mega latino, Shotgun Wedding (2022) AMZN WEB-DL 1080p Latino 4k latino, Shotgun Wedding (2022) AMZN WEB-DL 1080p Latino pelicula completa, Shotgun Wedding (2022) AMZN WEB-DL 1080p Latino descargar gratis, descargar Shotgun Wedding (2022) AMZN WEB-DL 1080p Latino pelicula latino, Shotgun Wedding (2022) AMZN WEB-DL 1080p Latino 1 link mega, Shotgun Wedding (2022) AMZN WEB-DL 1080p Latino 1 link google drive, Shotgun Wedding (2022) AMZN WEB-DL 1080p Latino hd 1080p latino.
Comentarios 0