Shopkins World Vacation (2017) WEBDL 1080p Latino

1.186 vistas
1 estrella2 estrellas3 estrellas4 estrellas5 estrellas (Ninguna valoración todavía)
Cargando…

Información de Shopkins World Vacation (2017) WEBDL 1080p Latino

Datos de la película

  • Calidad: WEBDL
  • Audio: Español Latino AC3 2.0 iTunes - Ingles AC3 5.1 iTunes
  • Subtitulos: Español Latino SRT
  • Resolución: 1916x1072p
  • Formato: MKV
  • Codec: H.264
  • Encoder: Dpelis
  • Mediainfo: Clic para Mostrar Datos Ver
  • Shopkins World Vacation (2017) webdl 1080p Latino.mkv
    Format                      : Matroska
    Format version              : Version 4 / Version 2
    File size                   : 2.78 GiB
    Duration                    : 1 h 10 min
    Overall bit rate            : 5 606 kb/s
    Movie name                  : DPeliculasHDMega.ORG
    Encoded date                : UTC 2017-10-03 21:43:33
    Writing application         : mkvmerge v10.0.0 ('To Drown In You') 64bit
    Writing library             : libebml v1.3.4 + libmatroska v1.4.5

    Video
    ID                          : 1
    Format                      : AVC
    Format/Info                 : Advanced Video Codec
    Format profile              : [email protected]
    Format settings, CABAC      : Yes
    Format settings, RefFrames  : 4 frames
    Codec ID                    : V_MPEG4/ISO/AVC
    Duration                    : 1 h 10 min
    Bit rate                    : 5 092 kb/s
    Width                       : 1 916 pixels
    Height                      : 1 072 pixels
    Display aspect ratio        : 16:9
    Frame rate mode             : Constant
    Frame rate                  : 23.976 (23976/1000) FPS
    Color space                 : YUV
    Chroma subsampling          : 4:2:0
    Bit depth                   : 8 bits
    Scan type                   : Progressive
    Bits/(Pixel*Frame)          : 0.103
    Stream size                 : 2.52 GiB (91%)
    Language                    : English
    Default                     : Yes
    Forced                      : No
    Color range                 : Limited
    Color primaries             : BT.709
    Transfer characteristics    : BT.709
    Matrix coefficients         : BT.709

    Audio #1
    ID                          : 2
    Format                      : AAC
    Format/Info                 : Advanced Audio Codec
    Format profile              : LC
    Codec ID                    : A_AAC
    Duration                    : 1 h 10 min
    Bit rate                    : 127 kb/s
    Channel(s)                  : 2 channels
    Channel positions           : Front: L R
    Sampling rate               : 48.0 kHz
    Frame rate                  : 46.875 FPS (1024 SPF)
    Compression mode            : Lossy
    Delay relative to video     : -42 ms
    Stream size                 : 64.7 MiB (2%)
    Language                    : Spanish
    Default                     : No
    Forced                      : No

    Audio #2
    ID                          : 3
    Format                      : AC-3
    Format/Info                 : Audio Coding 3
    Format settings, Endianness : Big
    Codec ID                    : A_AC3
    Duration                    : 1 h 10 min
    Bit rate mode               : Constant
    Bit rate                    : 384 kb/s
    Channel(s)                  : 6 channels
    Channel positions           : Front: L C R, Side: L R, LFE
    Sampling rate               : 48.0 kHz
    Frame rate                  : 31.250 FPS (1536 SPF)
    Bit depth                   : 16 bits
    Compression mode            : Lossy
    Delay relative to video     : -42 ms
    Stream size                 : 195 MiB (7%)
    Language                    : English
    Service kind                : Complete Main
    Default                     : Yes
    Forced                      : No

    Text
    ID                          : 4
    Format                      : UTF-8
    Codec ID                    : S_TEXT/UTF8
    Codec ID/Info               : UTF-8 Plain Text
    Duration                    : 6 s 798 ms
    Bit rate                    : 17 b/s
    Count of elements           : 1
    Stream size                 : 15.0 Bytes (0%)
    Language                    : Spanish
    Default                     : Yes
    Forced                      : No

    Menu
    00:00:00.000                : en:1
    00:08:32.761                : en:2
    00:20:22.928                : en:3
    00:32:08.091                : en:4
    00:42:51.400                : en:5
    00:56:16.287                : en:6
    01:08:48.998                : en:7

  • Peso: 2.78 GB

Sinopsis

Los Shopkins están de vuelta y van global! ¡Empaque su tarjeta de embarque, asegure su cinturón de seguridad y únase a sus personajes favoritos en una aventura mundial!

Ficha técnica

  • Titulo original: Shopkins World Vacation
  • Fecha de lanzamiento: 03-10-2017
  • Género: Animación
  • Puntuación: 0.0 0 votos
  • Duración:
    1h 10m

Video trailer de la película

Enlaces de descarga

Rip de Bluray

Descargar Shopkins World Vacation (2017) WEBDL 1080p Latino




Aportes de DPeliculasHDmega la pass es:dpeliculashdmega.org Aportes de CinemaniaHD la pass es:cinemaniahdd.com
Guardado en : Animación

Películas relacionadas

Comentarios 4
  • Raul - 15 febrero, 2018

    Hola al querer descargar por google drive me indica que necesito permisos que me deben de autorizar. Gracias

    • Dracarys - 22 febrero, 2018

      usar mega

  • Ricardo - 09 octubre, 2017

    Ya tengo las 3 partes descargadas de la Peli de Shopkins, pero al Extraer el archivo, me sale un error en la Parte 3.
    Espero me puedan ayudar. Saludos y Felicidades. Excelente pelicula.

    • dpelis - 09 octubre, 2017

      bajar de nuevo parte3