×

¿Problemas para descargar con Mozilla, EDGE? Deshabilita la opción "Abrir vinculos en una pestaña nueva" tal como lo muestra ésta imagen.

Shōgun (2024) Temporada 1 WEB-DL 4K UHD HDR Latino

109 vistas

Información de Shōgun (2024) Temporada 1 WEB-DL 4K UHD HDR Latino

Datos de la película

  • Calidad: WEBDL
  • Audio: Se especifica abajo de la Sinopsis
  • Subtitulos: Español Latino SRT- FORZADOS SRT
  • Resolución: 3840x2160p
  • Formato: MKV
  • Codec: HEVC
  • Encoder: Melkor
  • Mediainfo: Clic para Mostrar Datos Ver
  • Shogun (2024) S01E01 WEB UHD HDR Latino.mkv
    Format                      : Matroska
    Format version              : Version 4
    File size                   : 7.17 GiB
    Duration                    : 1 h 9 min
    Overall bit rate            : 14.7 Mb/s
    Movie name                  : CinemaniaHDD.Net
    Encoded date                : UTC 2024-02-29 05:02:03
    Writing application         : mkvmerge v56.1.0 ('My Friend') 64-bit
    Writing library             : libebml v1.4.2 + libmatroska v1.6.4
    Attachments                 : CINEMANIAHD.png
    Site                        : CinemaniaHDD.Net
    Uploader                    : Melkor

    Video
    ID                          : 1
    Format                      : HEVC
    Format/Info                 : High Efficiency Video Coding
    Format profile              : Main 10@L5@High
    HDR format                  : SMPTE ST 2086, HDR10 compatible
    Codec ID                    : V_MPEGH/ISO/HEVC
    Duration                    : 1 h 9 min
    Bit rate                    : 14.2 Mb/s
    Width                       : 3 840 pixels
    Height                      : 2 160 pixels
    Display aspect ratio        : 16:9
    Frame rate mode             : Constant
    Frame rate                  : 24.000 FPS
    Color space                 : YUV
    Chroma subsampling          : 4:2:0
    Bit depth                   : 10 bits
    Bits/(Pixel*Frame)          : 0.071
    Stream size                 : 6.91 GiB (96%)
    Title                       : Web 2160p HDR [CinemaniaHDD]
    Default                     : Yes
    Forced                      : No
    Color range                 : Limited
    Color primaries             : BT.2020
    Transfer characteristics    : PQ
    Matrix coefficients         : BT.2020 non-constant
    Mastering display color pri : Display P3
    Mastering display luminance : min: 0.0001 cd/m2, max: 1000 cd/m2

    Audio #1
    ID                          : 2
    Format                      : E-AC-3
    Format/Info                 : Enhanced AC-3
    Commercial name             : Dolby Digital Plus
    Codec ID                    : A_EAC3
    Duration                    : 1 h 9 min
    Bit rate mode               : Constant
    Bit rate                    : 256 kb/s
    Channel(s)                  : 6 channels
    Channel layout              : L R C LFE Ls Rs
    Sampling rate               : 48.0 kHz
    Frame rate                  : 31.250 FPS (1536 SPF)
    Compression mode            : Lossy
    Stream size                 : 128 MiB (2%)
    Title                       : Español Latino [CinemaniaHDD]
    Language                    : Spanish
    Service kind                : Complete Main
    Default                     : Yes
    Forced                      : Yes

    Audio #2
    ID                          : 3
    Format                      : E-AC-3
    Format/Info                 : Enhanced AC-3
    Commercial name             : Dolby Digital Plus
    Codec ID                    : A_EAC3
    Duration                    : 1 h 9 min
    Bit rate mode               : Constant
    Bit rate                    : 256 kb/s
    Channel(s)                  : 6 channels
    Channel layout              : L R C LFE Ls Rs
    Sampling rate               : 48.0 kHz
    Frame rate                  : 31.250 FPS (1536 SPF)
    Compression mode            : Lossy
    Stream size                 : 128 MiB (2%)
    Title                       : Ingles [CinemaniaHDD]
    Language                    : English
    Service kind                : Complete Main
    Default                     : No
    Forced                      : No

    Text #1
    ID                          : 4
    Format                      : UTF-8
    Codec ID                    : S_TEXT/UTF8
    Codec ID/Info               : UTF-8 Plain Text
    Duration                    : 1 h 6 min
    Bit rate                    : 25 b/s
    Count of elements           : 406
    Stream size                 : 12.6 KiB (0%)
    Title                       : Forzados-SRT [CinemaniaHDD]
    Language                    : Spanish
    Default                     : Yes
    Forced                      : Yes

    Text #2
    ID                          : 5
    Format                      : UTF-8
    Codec ID                    : S_TEXT/UTF8
    Codec ID/Info               : UTF-8 Plain Text
    Duration                    : 1 h 9 min
    Bit rate                    : 43 b/s
    Count of elements           : 680
    Stream size                 : 22.2 KiB (0%)
    Title                       : Español-SRT [CinemaniaHDD]
    Language                    : Spanish
    Default                     : No
    Forced                      : No

    Text #3
    ID                          : 6
    Format                      : UTF-8
    Codec ID                    : S_TEXT/UTF8
    Codec ID/Info               : UTF-8 Plain Text
    Duration                    : 1 h 5 min
    Bit rate                    : 45 b/s
    Count of elements           : 690
    Stream size                 : 21.6 KiB (0%)
    Title                       : Ingles-SRT [CinemaniaHDD]
    Language                    : English
    Default                     : No
    Forced                      : No

  • Peso: 7 GiB Aprox C/U -- 9 Chapters Added

Sinopsis

Descargar Shōgun (2024) Temporada 1 WEB-DL 4K UHD HDR Latino. En el Japón del siglo XVII, el náufrago británico John Blackthorne pasa de ser un extraño a un samurái, mientras es utilizado como peón en la lucha del líder japonés, Toranaga, por llegar a la cima de la cadena gobernante.

Español Latino – Ingles [EAC3 5.1 D+] 
9 Capítulos Agregados

Ficha técnica

Video trailer de la película

Enlaces de descarga

Rip de Bluray

Descargar Shōgun (2024) Temporada 1 WEB-DL 4K UHD HDR Latino




Aportes de DPeliculasHDmega la pass es:dpeliculashdmega.org Aportes de CinemaniaHD la pass es:cinemaniahdd.com Aportes recientes:cinemaniahdd.net
Guardado en : 4K HDR , 4K UHD , Drama , Series , War & Politics

Películas relacionadas

descargar Shōgun (2024) Temporada 1 WEB-DL 4K UHD HDR Latino WEBDL 1080p gratis, Shōgun (2024) Temporada 1 WEB-DL 4K UHD HDR Latino WEBDL mega 1 link, Shōgun (2024) Temporada 1 WEB-DL 4K UHD HDR Latino WEBDL serie completa, descargar Shōgun (2024) Temporada 1 WEB-DL 4K UHD HDR Latino WEBDL gratis en mega.

Shōgun (2024) Temporada 1 WEB-DL 4K UHD HDR Latino pelicula full hd, Shōgun (2024) Temporada 1 WEB-DL 4K UHD HDR Latino mega latino, Shōgun (2024) Temporada 1 WEB-DL 4K UHD HDR Latino 4k latino, Shōgun (2024) Temporada 1 WEB-DL 4K UHD HDR Latino pelicula completa, Shōgun (2024) Temporada 1 WEB-DL 4K UHD HDR Latino descargar gratis, descargar Shōgun (2024) Temporada 1 WEB-DL 4K UHD HDR Latino pelicula latino, Shōgun (2024) Temporada 1 WEB-DL 4K UHD HDR Latino 1 link mega, Shōgun (2024) Temporada 1 WEB-DL 4K UHD HDR Latino 1 link google drive, Shōgun (2024) Temporada 1 WEB-DL 4K UHD HDR Latino hd 1080p latino.
Comentarios 0