×

¿Problemas para descargar con Mozilla, EDGE? Deshabilita la opción "Abrir vinculos en una pestaña nueva" tal como lo muestra ésta imagen.

Sherlock (2017) Temporada 04 REMUX 1080p Latino

172 vistas

Información de Sherlock (2017) Temporada 04 REMUX 1080p Latino

Datos de la película

  • Calidad: Full 1080p
  • Audio: Se especifica abajo de la Sinopsis
  • Subtitulos: Español Latino SRT- FORZADOS SRT
  • Resolución: 1920x1080p
  • Formato: MKV
  • Codec: H.264
  • Encoder: CinefiloCool
  • Mediainfo: Clic para Mostrar Datos Ver
  • Sherlock S04E01 (2017) REMUX 1080p Latino-CMHDD.mkv
    Format                      : Matroska
    Format version              : Version 4
    File size                   : 21.3 GiB
    Duration                    : 1 h 28 min
    Overall bit rate mode       : Variable
    Overall bit rate            : 34.5 Mb/s
    Movie name                  : Sherlock S04E01 - The Six Thatchers CinemaniaHDD.Net
    Encoded date                : UTC 2022-08-10 05:26:13
    Writing application         : mkvmerge v56.1.0 ('My Friend') 64-bit
    Writing library             : libebml v1.4.2 + libmatroska v1.6.4
    Attachments                 : CINEMANIAHD.png

    Video
    ID                          : 1
    Format                      : AVC
    Format/Info                 : Advanced Video Codec
    Format profile              : High@L4.1
    Format settings             : CABAC / 4 Ref Frames
    Format settings, CABAC      : Yes
    Format settings, Reference  : 4 frames
    Codec ID                    : V_MPEG4/ISO/AVC
    Duration                    : 1 h 28 min
    Bit rate mode               : Variable
    Bit rate                    : 29.1 Mb/s
    Maximum bit rate            : 39.0 Mb/s
    Width                       : 1 920 pixels
    Height                      : 1 080 pixels
    Display aspect ratio        : 16:9
    Frame rate mode             : Constant
    Frame rate                  : 25.000 FPS
    Color space                 : YUV
    Chroma subsampling          : 4:2:0
    Bit depth                   : 8 bits
    Scan type                   : Progressive
    Bits/(Pixel*Frame)          : 0.562
    Stream size                 : 18.0 GiB (84%)
    Title                       : REMUX HD1080i [CinemaniaHDD]
    Language                    : English
    Default                     : Yes
    Forced                      : Yes

    Audio #1
    ID                          : 2
    Format                      : AC-3
    Format/Info                 : Audio Coding 3
    Commercial name             : Dolby Digital
    Codec ID                    : A_AC3
    Duration                    : 1 h 28 min
    Bit rate mode               : Constant
    Bit rate                    : 256 kb/s
    Channel(s)                  : 2 channels
    Channel layout              : L R
    Sampling rate               : 32.0 kHz
    Frame rate                  : 20.833 FPS (1536 SPF)
    Compression mode            : Lossy
    Delay relative to video     : 40 ms
    Stream size                 : 162 MiB (1%)
    Title                       : Español Latino [CinemaniaHDD]
    Language                    : Spanish
    Service kind                : Complete Main
    Default                     : Yes
    Forced                      : Yes

    Audio #2
    ID                          : 3
    Format                      : MLP FBA 16-ch
    Format/Info                 : Meridian Lossless Packing FBA with 16-channel presentation
    Commercial name             : Dolby TrueHD with Dolby Atmos
    Codec ID                    : A_TRUEHD
    Duration                    : 1 h 28 min
    Bit rate mode               : Variable
    Bit rate                    : 4 413 kb/s
    Maximum bit rate            : 7 533 kb/s
    Channel(s)                  : 8 channels
    Channel layout              : L R C LFE Ls Rs Lb Rb
    Sampling rate               : 48.0 kHz
    Frame rate                  : 1 200.000 FPS (40 SPF)
    Compression mode            : Lossless
    Stream size                 : 2.72 GiB (13%)
    Title                       : Ingles [CinemaniaHDD]
    Language                    : English
    Default                     : No
    Forced                      : No
    Number of dynamic objects   : 11
    Bed channel count           : 1 channel
    Bed channel configuration   : LFE

    Audio #3
    ID                          : 4
    Format                      : AC-3
    Format/Info                 : Audio Coding 3
    Commercial name             : Dolby Digital
    Format settings             : Dolby Surround EX
    Codec ID                    : A_AC3
    Duration                    : 1 h 28 min
    Bit rate mode               : Constant
    Bit rate                    : 640 kb/s
    Channel(s)                  : 6 channels
    Channel layout              : L R C LFE Ls Rs
    Sampling rate               : 48.0 kHz
    Frame rate                  : 31.250 FPS (1536 SPF)
    Compression mode            : Lossy
    Delay relative to video     : 24 ms
    Stream size                 : 405 MiB (2%)
    Title                       : Ingles-AC3 [CinemaniaHDD]
    Language                    : English
    Service kind                : Complete Main
    Default                     : No
    Forced                      : No

    Text #1
    ID                          : 5
    Format                      : UTF-8
    Codec ID                    : S_TEXT/UTF8
    Codec ID/Info               : UTF-8 Plain Text
    Duration                    : 1 h 24 min
    Bit rate                    : 2 b/s
    Count of elements           : 66
    Stream size                 : 1.47 KiB (0%)
    Title                       : Forzados-SRT [CinemaniaHDD]
    Language                    : Spanish
    Default                     : Yes
    Forced                      : Yes

    Text #2
    ID                          : 6
    Format                      : UTF-8
    Codec ID                    : S_TEXT/UTF8
    Codec ID/Info               : UTF-8 Plain Text
    Duration                    : 1 h 28 min
    Bit rate                    : 79 b/s
    Count of elements           : 1544
    Stream size                 : 51.3 KiB (0%)
    Title                       : Español-SRT [CinemaniaHDD]
    Language                    : Spanish
    Default                     : No
    Forced                      : No

    Text #3
    ID                          : 7
    Format                      : PGS
    Muxing mode                 : zlib
    Codec ID                    : S_HDMV/PGS
    Codec ID/Info               : Picture based subtitle format used on BDs/HD-DVDs
    Duration                    : 1 h 28 min
    Bit rate                    : 53.2 kb/s
    Count of elements           : 3346
    Stream size                 : 33.6 MiB (0%)
    Title                       : Ingles [CinemaniaHDD]
    Language                    : English
    Default                     : No
    Forced                      : No

    Menu
    00:00:00.000                : Chapter 1
    00:09:38.000                : Chapter 2
    00:21:06.840                : Chapter 3
    00:30:33.440                : Chapter 4
    00:40:32.160                : Chapter 5
    00:50:25.240                : Chapter 6
    01:02:59.240                : Chapter 7
    01:11:34.160                : Chapter 8

  • Peso: 21.3 GiB - 21.4 GiB Aprox C/U. | 64.1 GiB Total.

Sinopsis

Descargar Sherlock (2017) Temporada 04 REMUX 1080p Latino. Moderna actualización del mito de Sherlock Holmes, ambientado en el Londres del siglo XXI. Sus insuperables habilidades de deducción y su arrogante distanciamiento emocional le convierten en el perfecto detective junto a su inseparable compañero John Watson.

Argumento Cuarta Temporada: En esta cuarta entrega se muestra las consecuencias que tiene la vida en los personajes. Sherlock pasa de tomarse los casos como un juego a encontrar una implicación personal que le sirve de guía. La relación entre el detective y su compañero Jhon es más fuerte, incluso la mujer de Jhon da el visto bueno a la colaboración entre ambos. Además, Sherlock se enfrenta a un nuevo villano Culberton Smith (Toby Jones). Y, por supuesto, Moriarty sigue atormentando al protagonista a pesar de estar muerto.

Audio:
Español Latino Sync AC3 2.0 HMAX – Ingles TrueHD 7.1 + AC3 5.1 Bluray
Audio Latino: CinefiloCool Thanks!!🙂
Disponible Solo para VIP!!

Ficha técnica

Video trailer de la película

Enlaces de descarga

Rip de Bluray

Descargar Sherlock (2017) Temporada 04 REMUX 1080p Latino


Aportes de DPeliculasHDmega la pass es:dpeliculashdmega.org Aportes de CinemaniaHD la pass es:cinemaniahdd.com
Guardado en : Crimen , Drama , Misterio , Remux , Series

Películas relacionadas

  • Stromboli (2022) NF WEB-DL 1080p Latino

    Stromboli (2022) NF WEB-DL 1080p Latino

    2022
    Stromboli (2022) NF WEB-DL 1080p Latino

    1h 26m 2022

    Descargar Stromboli (2022) NF WEB-DL 1080p Latino. Sara, una mujer que se ha divorciado recientemente,...

    Director: Michiel van Erp

    Género: Drama

    Actores: Tim McInnerny

  • Infiesto (2023) NF WEB-DL 1080p Castellano

    Infiesto (2023) NF WEB-DL 1080p Castellano

    2023
    Infiesto (2023) NF WEB-DL 1080p Castellano

    1h 36m 2023

    Descargar Infiesto (2023) NF WEB-DL 1080p Castellano. Mientras el coronavirus trastoca sus vidas, dos...

    Director: Patxi Amezcua

    Género: Crimen

    Actores: Luis Zahera

  • Espiritu Libre (2023) NF WEB-DL 1080p Latino

    Espiritu Libre (2023) NF WEB-DL 1080p Latino

    2023
    Espiritu Libre (2023) NF WEB-DL 1080p Latino

    1h 49m 2023

    Descargar Espiritu Libre (2023) NF WEB-DL 1080p Latino. La película se basa en la increíble historia...

    Director: Sarah Spillane

    Género: Aventura

    Actores: Vivien Turner

descargar Sherlock (2017) Temporada 04 REMUX 1080p Latino Full 1080p 1080p gratis, Sherlock (2017) Temporada 04 REMUX 1080p Latino Full 1080p mega 1 link, Sherlock (2017) Temporada 04 REMUX 1080p Latino Full 1080p serie completa, descargar Sherlock (2017) Temporada 04 REMUX 1080p Latino Full 1080p gratis en mega.

Sherlock (2017) Temporada 04 REMUX 1080p Latino pelicula full hd, Sherlock (2017) Temporada 04 REMUX 1080p Latino mega latino, Sherlock (2017) Temporada 04 REMUX 1080p Latino 4k latino, Sherlock (2017) Temporada 04 REMUX 1080p Latino pelicula completa, Sherlock (2017) Temporada 04 REMUX 1080p Latino descargar gratis, descargar Sherlock (2017) Temporada 04 REMUX 1080p Latino pelicula latino, Sherlock (2017) Temporada 04 REMUX 1080p Latino 1 link mega, Sherlock (2017) Temporada 04 REMUX 1080p Latino 1 link google drive, Sherlock (2017) Temporada 04 REMUX 1080p Latino hd 1080p latino.
Comentarios 0