×

¿Problemas para descargar con Mozilla, EDGE? Deshabilita la opción "Abrir vinculos en una pestaña nueva" tal como lo muestra ésta imagen.

Sherlock (2014) Temporada 03 + Bonus REMUX 1080i Latino

74 vistas

Información de Sherlock (2014) Temporada 03 + Bonus REMUX 1080i Latino

Datos de la película

  • Calidad: Full 1080p
  • Audio: Español Latino AC3 2.0 WEB-DL - Ingles DTS 5.1 BLURAY
  • Subtitulos: Español Latino SRT- FORZADOS SRT
  • Resolución: 1920x1080i
  • Formato: MKV
  • Codec: H.264
  • Encoder: CinefiloCool
  • Mediainfo: Clic para Mostrar Datos Ver
  • Sherlock S03E01 (2014) REMUX 1080i Latino-CMHDD.mkv
    Format                      : Matroska
    Format version              : Version 4
    File size                   : 20.4 GiB
    Duration                    : 1 h 26 min
    Overall bit rate mode       : Variable
    Overall bit rate            : 33.7 Mb/s
    Movie name                  : Sherlock S03E01 - The Empty Hearse CinemaniaHDD.Net
    Encoded date                : UTC 2022-08-09 05:19:49
    Writing application         : mkvmerge v56.1.0 ('My Friend') 64-bit
    Writing library             : libebml v1.4.2 + libmatroska v1.6.4
    Attachments                 : CINEMANIAHD.png

    Video
    ID                          : 1
    Format                      : AVC
    Format/Info                 : Advanced Video Codec
    Format profile              : High@L4.1
    Format settings             : CABAC / 4 Ref Frames
    Format settings, CABAC      : Yes
    Format settings, Reference  : 4 frames
    Format settings, GOP        : M=1, N=25
    Codec ID                    : V_MPEG4/ISO/AVC
    Duration                    : 1 h 26 min
    Bit rate mode               : Variable
    Bit rate                    : 29.8 Mb/s
    Maximum bit rate            : 39.0 Mb/s
    Width                       : 1 920 pixels
    Height                      : 1 080 pixels
    Display aspect ratio        : 16:9
    Frame rate mode             : Constant
    Frame rate                  : 25.000 FPS
    Color space                 : YUV
    Chroma subsampling          : 4:2:0
    Bit depth                   : 8 bits
    Scan type                   : MBAFF
    Scan type, store method     : Interleaved fields
    Scan order                  : Top Field First
    Bits/(Pixel*Frame)          : 0.574
    Stream size                 : 18.0 GiB (88%)
    Title                       : REMUX HD1080i [CinemaniaHDD]
    Language                    : English
    Default                     : Yes
    Forced                      : Yes

    Audio #1
    ID                          : 2
    Format                      : AC-3
    Format/Info                 : Audio Coding 3
    Commercial name             : Dolby Digital
    Codec ID                    : A_AC3
    Duration                    : 1 h 26 min
    Bit rate mode               : Constant
    Bit rate                    : 256 kb/s
    Channel(s)                  : 2 channels
    Channel layout              : L R
    Sampling rate               : 48.0 kHz
    Frame rate                  : 31.250 FPS (1536 SPF)
    Compression mode            : Lossy
    Stream size                 : 158 MiB (1%)
    Title                       : Español Latino [CinemaniaHDD]
    Language                    : Spanish
    Service kind                : Complete Main
    Default                     : Yes
    Forced                      : Yes

    Audio #2
    ID                          : 3
    Format                      : DTS XLL
    Format/Info                 : Digital Theater Systems
    Commercial name             : DTS-HD Master Audio
    Codec ID                    : A_DTS
    Duration                    : 1 h 26 min
    Bit rate mode               : Variable
    Bit rate                    : 3 704 kb/s
    Channel(s)                  : 6 channels
    Channel layout              : C L R Ls Rs LFE
    Sampling rate               : 48.0 kHz
    Frame rate                  : 93.750 FPS (512 SPF)
    Bit depth                   : 24 bits
    Compression mode            : Lossless
    Stream size                 : 2.24 GiB (11%)
    Title                       : Ingles [CinemaniaHDD]
    Language                    : English
    Default                     : No
    Forced                      : No

    Text #1
    ID                          : 4
    Format                      : UTF-8
    Codec ID                    : S_TEXT/UTF8
    Codec ID/Info               : UTF-8 Plain Text
    Duration                    : 1 h 7 min
    Bit rate                    : 3 b/s
    Count of elements           : 66
    Stream size                 : 1.66 KiB (0%)
    Title                       : Forzados-SRT [CinemaniaHDD]
    Language                    : Spanish
    Default                     : Yes
    Forced                      : Yes

    Text #2
    ID                          : 5
    Format                      : UTF-8
    Codec ID                    : S_TEXT/UTF8
    Codec ID/Info               : UTF-8 Plain Text
    Duration                    : 1 h 25 min
    Bit rate                    : 66 b/s
    Count of elements           : 1234
    Stream size                 : 41.4 KiB (0%)
    Title                       : Español-SRT [CinemaniaHDD]
    Language                    : Spanish
    Default                     : No
    Forced                      : No

    Text #3
    ID                          : 6
    Format                      : PGS
    Muxing mode                 : zlib
    Codec ID                    : S_HDMV/PGS
    Codec ID/Info               : Picture based subtitle format used on BDs/HD-DVDs
    Duration                    : 1 h 25 min
    Bit rate                    : 43.6 kb/s
    Count of elements           : 2564
    Stream size                 : 26.7 MiB (0%)
    Title                       : Ingles-PGS [CinemaniaHDD]
    Language                    : English
    Default                     : No
    Forced                      : No

    Menu
    00:00:00.000                : 00:00:00.000
    00:10:44.680                : 00:10:44.680
    00:17:05.600                : 00:17:05.600
    00:31:26.320                : 00:31:26.320
    00:43:55.680                : 00:43:55.680
    00:55:39.480                : 00:55:39.480
    01:02:21.760                : 01:02:21.760
    01:12:02.760                : 01:12:02.760

  • Peso: 20.2 GiB - 25.8 GiB Aprox C/U. | 88.6 GiB Total.

Sinopsis

Descargar Sherlock (2014) Temporada 03 + Bonus REMUX 1080i Latino Moderna actualización del mito de Sherlock Holmes, ambientado en el Londres del siglo XXI. Sus insuperables habilidades de deducción y su arrogante distanciamiento emocional le convierten en el perfecto detective junto a su inseparable compañero John Watson.

Argumento Tercera Temporada: La tercera temporada comienza con el regreso de Sherlock después de que sus compañeros y conocidos le dieran por muerto. En la ausencia del protagonista, su compañero John ha seguido con su vida llegando a enamorarse de Mary Morstan, quién será su esposa. Además, aparece un nuevo villano Charles Augustus Magnussen que es considerado el rey del chantaje. Esta temporada se centra en contar cómo han sido los buenos momentos entre el protagonista, su eterno compañero y la mujer de este.
Argumento Bonus: La novia abominable: ¡Bienvenidos al Sherlock de 1895! Para el detective más famoso del mundo y su mejor amigo, algunas cosas continúan igual: la amistad, la aventura y sobre todo… los asesinatos. ¿Por qué se sorprende Thomas Ricoletti de ver a su mujer con su vestido de boda? Porque apenas unas horas antes la vio morir… El fantasma de la señora Emelia Ricoletti ahora parece recorrer las calles con sed de venganza, y solo Holmes y el doctor Watson pueden hacer frente a esta novia de ultratumba.

Audio:
Español Latino Sync AC3 2.0 HMAX – Ingles DTS-HD 5.1 Bluray
Audio Latino: CinefiloCool Thanks!!🙂
Disponible Solo para VIP!!

Nota: El source es un Bluray con barrido entrelazado (1080i)
Nota 2: El episodio especial de La novia abominable es un extra aparte de la temporada, pero dada la fecha de estreno he decido agregarlo aqui como episodio Nº 4

Ficha técnica

Video trailer de la película

Enlaces de descarga

Rip de Bluray

Descargar Sherlock (2014) Temporada 03 + Bonus REMUX 1080i Latino


Aportes de DPeliculasHDmega la pass es:dpeliculashdmega.org Aportes de CinemaniaHD la pass es:cinemaniahdd.com
Guardado en : Crimen , Drama , Misterio , Remux , Series

Películas relacionadas

  • Ajin: Semi-Humano (2017) AMZN WEB-DL 1080p Latino

    Ajin: Semi-Humano (2017) AMZN WEB-DL 1080p Latino

    2017
    Ajin: Semi-Humano (2017) AMZN WEB-DL 1080p Latino

    1h 50m 2017

    Descargar Ajin: Semi-Humano (2017) AMZN WEB-DL 1080p Latino. En el manga original, aparece una persona...

    Director: Toru Yamamoto

    Género: Acción

    Actores: Yuki Yamada

  • Ajin: Semi-Humano (2017) REMUX 1080p Latino

    Ajin: Semi-Humano (2017) REMUX 1080p Latino

    2017
    Ajin: Semi-Humano (2017) REMUX 1080p Latino

    1h 50m 2017

    Descargar Ajin: Semi-Humano (2017) REMUX 1080p Latino. En el manga original, aparece una persona inmortal...

    Director: Toru Yamamoto

    Género: Acción

    Actores: Yuki Yamada

  • Zola (2020) HD 1080p Latino

    Zola (2020) HD 1080p Latino

    2020
    Zola (2020) HD 1080p Latino

    1h 26m 2020

    Descargar Zola (2020) HD 1080p Latino. Una camarera accede a acompañar a una bailarina exótica, su...

    Director: Sheri Davani

    Género: Comedia

    Actores: Ts Madison

descargar Sherlock (2014) Temporada 03 + Bonus REMUX 1080i Latino Full 1080p 1080p gratis, Sherlock (2014) Temporada 03 + Bonus REMUX 1080i Latino Full 1080p mega 1 link, Sherlock (2014) Temporada 03 + Bonus REMUX 1080i Latino Full 1080p serie completa, descargar Sherlock (2014) Temporada 03 + Bonus REMUX 1080i Latino Full 1080p gratis en mega.

Sherlock (2014) Temporada 03 + Bonus REMUX 1080i Latino pelicula full hd, Sherlock (2014) Temporada 03 + Bonus REMUX 1080i Latino mega latino, Sherlock (2014) Temporada 03 + Bonus REMUX 1080i Latino 4k latino, Sherlock (2014) Temporada 03 + Bonus REMUX 1080i Latino pelicula completa, Sherlock (2014) Temporada 03 + Bonus REMUX 1080i Latino descargar gratis, descargar Sherlock (2014) Temporada 03 + Bonus REMUX 1080i Latino pelicula latino, Sherlock (2014) Temporada 03 + Bonus REMUX 1080i Latino 1 link mega, Sherlock (2014) Temporada 03 + Bonus REMUX 1080i Latino 1 link google drive, Sherlock (2014) Temporada 03 + Bonus REMUX 1080i Latino hd 1080p latino.
Comentarios 0