×

¿Problemas para descargar con Mozilla, EDGE? Deshabilita la opción "Abrir vinculos en una pestaña nueva" tal como lo muestra ésta imagen.

Sherlock (2012) Temporada 02 REMUX 1080i Latino

145 vistas

Información de Sherlock (2012) Temporada 02 REMUX 1080i Latino

Datos de la película

  • Calidad: Full 1080p
  • Audio: Español Latino AC3 2.0 WEB-DL - Ingles AC3 5.1 BLURAY
  • Subtitulos: Español Latino SRT- FORZADOS SRT
  • Resolución: 1920x1080i
  • Formato: MKV
  • Codec: H.264
  • Encoder: CinefiloCool
  • Mediainfo: Clic para Mostrar Datos Ver
  • Sherlock S02E01 (2012) REMUX 1080i Latino-CMHDD.mkv
    Format                      : Matroska
    Format version              : Version 4
    File size                   : 20.3 GiB
    Duration                    : 1 h 29 min
    Overall bit rate mode       : Variable
    Overall bit rate            : 32.5 Mb/s
    Movie name                  : Sherlock S02E01 - A Scandal in Belgravia CinemaniaHDD.Net
    Encoded date                : UTC 2022-08-08 05:25:39
    Writing application         : mkvmerge v56.1.0 ('My Friend') 64-bit
    Writing library             : libebml v1.4.2 + libmatroska v1.6.4
    Attachments                 : CINEMANIAHD.png

    Video
    ID                          : 1
    Format                      : AVC
    Format/Info                 : Advanced Video Codec
    Format profile              : High@L4.1
    Format settings             : CABAC / 4 Ref Frames
    Format settings, CABAC      : Yes
    Format settings, Reference  : 4 frames
    Format settings, GOP        : M=1, N=25
    Codec ID                    : V_MPEG4/ISO/AVC
    Duration                    : 1 h 29 min
    Bit rate mode               : Variable
    Bit rate                    : 31.2 Mb/s
    Maximum bit rate            : 38.5 Mb/s
    Width                       : 1 920 pixels
    Height                      : 1 080 pixels
    Display aspect ratio        : 16:9
    Frame rate mode             : Constant
    Frame rate                  : 25.000 FPS
    Color space                 : YUV
    Chroma subsampling          : 4:2:0
    Bit depth                   : 8 bits
    Scan type                   : MBAFF
    Scan type, store method     : Interleaved fields
    Scan order                  : Top Field First
    Bits/(Pixel*Frame)          : 0.601
    Stream size                 : 19.5 GiB (96%)
    Title                       : REMUX HD1080i [CinemaniaHDD]
    Language                    : English
    Default                     : Yes
    Forced                      : Yes

    Audio #1
    ID                          : 2
    Format                      : AC-3
    Format/Info                 : Audio Coding 3
    Commercial name             : Dolby Digital
    Codec ID                    : A_AC3
    Duration                    : 1 h 29 min
    Bit rate mode               : Constant
    Bit rate                    : 256 kb/s
    Channel(s)                  : 2 channels
    Channel layout              : L R
    Sampling rate               : 48.0 kHz
    Frame rate                  : 31.250 FPS (1536 SPF)
    Compression mode            : Lossy
    Stream size                 : 164 MiB (1%)
    Title                       : Español Latino [CinemaniaHDD]
    Language                    : Spanish
    Service kind                : Complete Main
    Default                     : Yes
    Forced                      : Yes

    Audio #2
    ID                          : 3
    Format                      : AC-3
    Format/Info                 : Audio Coding 3
    Commercial name             : Dolby Digital
    Codec ID                    : A_AC3
    Duration                    : 1 h 29 min
    Bit rate mode               : Constant
    Bit rate                    : 448 kb/s
    Channel(s)                  : 6 channels
    Channel layout              : L R C LFE Ls Rs
    Sampling rate               : 48.0 kHz
    Frame rate                  : 31.250 FPS (1536 SPF)
    Compression mode            : Lossy
    Stream size                 : 287 MiB (1%)
    Title                       : Ingles [CinemaniaHDD]
    Language                    : English
    Service kind                : Complete Main
    Default                     : No
    Forced                      : No

    Text #1
    ID                          : 4
    Format                      : UTF-8
    Codec ID                    : S_TEXT/UTF8
    Codec ID/Info               : UTF-8 Plain Text
    Title                       : Forzados-SRT [CinemaniaHDD]
    Language                    : Spanish
    Default                     : Yes
    Forced                      : Yes

    Text #2
    ID                          : 5
    Format                      : UTF-8
    Codec ID                    : S_TEXT/UTF8
    Codec ID/Info               : UTF-8 Plain Text
    Title                       : Español-SRT [CinemaniaHDD]
    Language                    : Spanish
    Default                     : No
    Forced                      : No

    Text #3
    ID                          : 6
    Format                      : PGS
    Muxing mode                 : zlib
    Codec ID                    : S_HDMV/PGS
    Codec ID/Info               : Picture based subtitle format used on BDs/HD-DVDs
    Title                       : Ingles-PGS [CinemaniaHDD]
    Language                    : English
    Default                     : No
    Forced                      : No

    Menu
    00:00:00.000                : 00:00:00.000
    00:09:15.360                : 00:09:15.360
    00:21:16.920                : 00:21:16.920
    00:32:31.360                : 00:32:31.360
    00:45:19.000                : 00:45:19.000
    00:55:42.760                : 00:55:42.760
    01:03:08.160                : 01:03:08.160
    01:12:30.080                : 01:12:30.080

  • Peso: 20.0 GiB - 20.3 GiB Aprox C/U. | 60.4 GiB Total.

Sinopsis

Descargar Sherlock (2012) Temporada 02 REMUX 1080i Latino. Moderna actualización del mito de Sherlock Holmes, ambientado en el Londres del siglo XXI. Sus insuperables habilidades de deducción y su arrogante distanciamiento emocional le convierten en el perfecto detective junto a su inseparable compañero John Watson.

Argumento Segunda Temporada:Esta temporada está basada en una novela y dos relatos: El sabueso de los Baskerville, Escándalo en Bohemia y El problema final. En esta segunda entrega se muestran los diferentes sentimientos que experimentan los personajes como son el miedo, la pérdida o el amor. Además, se produce el gran enfrentamiento entre Sherlock y Jim Moriarty (Andrew Scott) que acaba con la supuesta muerte de los dos.

Audio:
Español Latino Sync AC3 2.0 HMAX – Ingles AC3 5.1 Bluray
Audio Latino: CinefiloCool Thanks!!🙂
Disponible Solo para VIP!!

Nota: El source es un Bluray con barrido entrelazado (1080i)

Ficha técnica

Video trailer de la película

Enlaces de descarga

Rip de Bluray

Descargar Sherlock (2012) Temporada 02 REMUX 1080i Latino


Aportes de DPeliculasHDmega la pass es:dpeliculashdmega.org Aportes de CinemaniaHD la pass es:cinemaniahdd.com
Guardado en : Crimen , Drama , Misterio , Remux , Series

Películas relacionadas

descargar Sherlock (2012) Temporada 02 REMUX 1080i Latino Full 1080p 1080p gratis, Sherlock (2012) Temporada 02 REMUX 1080i Latino Full 1080p mega 1 link, Sherlock (2012) Temporada 02 REMUX 1080i Latino Full 1080p serie completa, descargar Sherlock (2012) Temporada 02 REMUX 1080i Latino Full 1080p gratis en mega.

Sherlock (2012) Temporada 02 REMUX 1080i Latino pelicula full hd, Sherlock (2012) Temporada 02 REMUX 1080i Latino mega latino, Sherlock (2012) Temporada 02 REMUX 1080i Latino 4k latino, Sherlock (2012) Temporada 02 REMUX 1080i Latino pelicula completa, Sherlock (2012) Temporada 02 REMUX 1080i Latino descargar gratis, descargar Sherlock (2012) Temporada 02 REMUX 1080i Latino pelicula latino, Sherlock (2012) Temporada 02 REMUX 1080i Latino 1 link mega, Sherlock (2012) Temporada 02 REMUX 1080i Latino 1 link google drive, Sherlock (2012) Temporada 02 REMUX 1080i Latino hd 1080p latino.
Comentarios 0