×

¿Problemas para descargar con Mozilla, EDGE? Deshabilita la opción "Abrir vinculos en una pestaña nueva" tal como lo muestra ésta imagen.

Sherlock (2010) Temporada 01 REMUX 1080i Latino

160 vistas

Información de Sherlock (2010) Temporada 01 REMUX 1080i Latino

Datos de la película

  • Calidad: Full 1080p
  • Audio: Español Latino AC3 2.0 WEB-DL - Ingles AC3 5.1 BLURAY
  • Subtitulos: Español Latino SRT- FORZADOS SRT
  • Resolución: 1920x1080i
  • Formato: MKV
  • Codec: H.264
  • Encoder: CinefiloCool
  • Mediainfo: Clic para Mostrar Datos Ver
  • Sherlock S01E01 (2010) REMUX 1080i Latino-CMHDD.mkv
    Format                      : Matroska
    Format version              : Version 4
    File size                   : 18.9 GiB
    Duration                    : 1 h 28 min
    Overall bit rate mode       : Variable
    Overall bit rate            : 30.7 Mb/s
    Movie name                  : Sherlock S01E01 - A Study in Pink CinemaniaHDD.Net
    Encoded date                : UTC 2022-08-04 03:19:55
    Writing application         : mkvmerge v56.1.0 ('My Friend') 64-bit
    Writing library             : libebml v1.4.2 + libmatroska v1.6.4
    Attachments                 : CINEMANIAHD.png

    Video
    ID                          : 1
    Format                      : AVC
    Format/Info                 : Advanced Video Codec
    Format profile              : High@L4.1
    Format settings             : CABAC / 4 Ref Frames
    Format settings, CABAC      : Yes
    Format settings, Reference  : 4 frames
    Codec ID                    : V_MPEG4/ISO/AVC
    Duration                    : 1 h 28 min
    Bit rate mode               : Variable
    Bit rate                    : 30.0 Mb/s
    Maximum bit rate            : 35.0 Mb/s
    Width                       : 1 920 pixels
    Height                      : 1 080 pixels
    Display aspect ratio        : 16:9
    Frame rate mode             : Variable
    Frame rate                  : 50.000 FPS
    Original frame rate         : 25.000 FPS
    Standard                    : PAL
    Color space                 : YUV
    Chroma subsampling          : 4:2:0
    Bit depth                   : 8 bits
    Scan type                   : Interlaced
    Scan type, store method     : Separated fields
    Scan order                  : Top Field First
    Bits/(Pixel*Frame)          : 0.289
    Stream size                 : 18.4 GiB (98%)
    Title                       : REMUX HD1080i [CinemaniaHDD]
    Language                    : English
    Default                     : Yes
    Forced                      : Yes
    Color range                 : Limited
    Color primaries             : BT.709
    Transfer characteristics    : BT.709
    Matrix coefficients         : BT.709

    Audio #1
    ID                          : 2
    Format                      : AC-3
    Format/Info                 : Audio Coding 3
    Commercial name             : Dolby Digital
    Codec ID                    : A_AC3
    Duration                    : 1 h 28 min
    Bit rate mode               : Constant
    Bit rate                    : 256 kb/s
    Channel(s)                  : 2 channels
    Channel layout              : L R
    Sampling rate               : 48.0 kHz
    Frame rate                  : 31.250 FPS (1536 SPF)
    Compression mode            : Lossy
    Stream size                 : 161 MiB (1%)
    Title                       : Español Latino [CinemaniaHDD]
    Language                    : Spanish
    Service kind                : Complete Main
    Default                     : Yes
    Forced                      : Yes

    Audio #2
    ID                          : 3
    Format                      : AC-3
    Format/Info                 : Audio Coding 3
    Commercial name             : Dolby Digital
    Codec ID                    : A_AC3
    Duration                    : 1 h 28 min
    Bit rate mode               : Constant
    Bit rate                    : 448 kb/s
    Channel(s)                  : 6 channels
    Channel layout              : L R C LFE Ls Rs
    Sampling rate               : 48.0 kHz
    Frame rate                  : 31.250 FPS (1536 SPF)
    Compression mode            : Lossy
    Stream size                 : 282 MiB (1%)
    Title                       : Ingles [CinemaniaHDD]
    Language                    : English
    Service kind                : Complete Main
    Default                     : No
    Forced                      : No

    Text #1
    ID                          : 4
    Format                      : UTF-8
    Codec ID                    : S_TEXT/UTF8
    Codec ID/Info               : UTF-8 Plain Text
    Duration                    : 1 h 1 min
    Bit rate                    : 2 b/s
    Count of elements           : 44
    Stream size                 : 938 Bytes (0%)
    Title                       : Forzados-SRT [CinemaniaHDD]
    Language                    : Spanish
    Default                     : Yes
    Forced                      : Yes

    Text #2
    ID                          : 5
    Format                      : UTF-8
    Codec ID                    : S_TEXT/UTF8
    Codec ID/Info               : UTF-8 Plain Text
    Duration                    : 1 h 27 min
    Bit rate                    : 71 b/s
    Count of elements           : 1363
    Stream size                 : 45.8 KiB (0%)
    Title                       : Español-SRT [CinemaniaHDD]
    Language                    : Spanish
    Default                     : No
    Forced                      : No

    Text #3
    ID                          : 6
    Format                      : PGS
    Muxing mode                 : zlib
    Codec ID                    : S_HDMV/PGS
    Codec ID/Info               : Picture based subtitle format used on BDs/HD-DVDs
    Duration                    : 1 h 25 min
    Bit rate                    : 57.9 kb/s
    Count of elements           : 2762
    Stream size                 : 35.5 MiB (0%)
    Title                       : Ingles-PGS [CinemaniaHDD]
    Language                    : English
    Default                     : No
    Forced                      : No

    Menu
    00:00:00.000                : Chapter 01
    00:12:01.200                : Chapter 02
    00:23:00.560                : Chapter 03
    00:34:36.680                : Chapter 04
    00:42:17.240                : Chapter 05
    00:55:16.480                : Chapter 06
    01:02:57.320                : Chapter 07
    01:21:38.880                : Chapter 08

  • Peso: 18.9 GiB - 19.1 GiB Aprox C/U. | 57 GiB Total.

Sinopsis

Descargar Sherlock (2010) Temporada 01 REMUX 1080i Latino. Moderna actualización del mito de Sherlock Holmes, ambientado en el Londres del siglo XXI. Sus insuperables habilidades de deducción y su arrogante distanciamiento emocional le convierten en el perfecto detective junto a su inseparable compañero John Watson.

Argumento Primera Temporada: Cuando un encuentro casual trae al soldado John Watson a la vida de Sherlock, es evidente que los dos hombres no podrían ser más diferentes, pero el intelecto de Sherlock junto con el pragmatismo de John pronto forja una alianza inquebrantable mientras investigan juntos una serie de casos desconcertantes.

Audio:
Español Latino Sync AC3 2.0 HMAX – Ingles AC3 5.1 Bluray
Audio Latino: CinefiloCool Thanks!!🙂
Disponible Solo para VIP!!

Nota: El source es un Bluray con barrido entrelazado (1080i)

Ficha técnica

Video trailer de la película

Enlaces de descarga

Rip de Bluray

Descargar Sherlock (2010) Temporada 01 REMUX 1080i Latino


Aportes de DPeliculasHDmega la pass es:dpeliculashdmega.org Aportes de CinemaniaHD la pass es:cinemaniahdd.com
Guardado en : Crimen , Drama , Misterio , Remux , Series

Películas relacionadas

  • Ajin: Semi-Humano (2017) AMZN WEB-DL 1080p Latino

    Ajin: Semi-Humano (2017) AMZN WEB-DL 1080p Latino

    2017
    Ajin: Semi-Humano (2017) AMZN WEB-DL 1080p Latino

    1h 50m 2017

    Descargar Ajin: Semi-Humano (2017) AMZN WEB-DL 1080p Latino. En el manga original, aparece una persona...

    Director: Toru Yamamoto

    Género: Acción

    Actores: Yuki Yamada

  • Ajin: Semi-Humano (2017) REMUX 1080p Latino

    Ajin: Semi-Humano (2017) REMUX 1080p Latino

    2017
    Ajin: Semi-Humano (2017) REMUX 1080p Latino

    1h 50m 2017

    Descargar Ajin: Semi-Humano (2017) REMUX 1080p Latino. En el manga original, aparece una persona inmortal...

    Director: Toru Yamamoto

    Género: Acción

    Actores: Yuki Yamada

  • Zola (2020) HD 1080p Latino

    Zola (2020) HD 1080p Latino

    2020
    Zola (2020) HD 1080p Latino

    1h 26m 2020

    Descargar Zola (2020) HD 1080p Latino. Una camarera accede a acompañar a una bailarina exótica, su...

    Director: Sheri Davani

    Género: Comedia

    Actores: Ts Madison

descargar Sherlock (2010) Temporada 01 REMUX 1080i Latino Full 1080p 1080p gratis, Sherlock (2010) Temporada 01 REMUX 1080i Latino Full 1080p mega 1 link, Sherlock (2010) Temporada 01 REMUX 1080i Latino Full 1080p serie completa, descargar Sherlock (2010) Temporada 01 REMUX 1080i Latino Full 1080p gratis en mega.

Sherlock (2010) Temporada 01 REMUX 1080i Latino pelicula full hd, Sherlock (2010) Temporada 01 REMUX 1080i Latino mega latino, Sherlock (2010) Temporada 01 REMUX 1080i Latino 4k latino, Sherlock (2010) Temporada 01 REMUX 1080i Latino pelicula completa, Sherlock (2010) Temporada 01 REMUX 1080i Latino descargar gratis, descargar Sherlock (2010) Temporada 01 REMUX 1080i Latino pelicula latino, Sherlock (2010) Temporada 01 REMUX 1080i Latino 1 link mega, Sherlock (2010) Temporada 01 REMUX 1080i Latino 1 link google drive, Sherlock (2010) Temporada 01 REMUX 1080i Latino hd 1080p latino.
Comentarios 0