×

¿Problemas para descargar con Mozilla, EDGE? Deshabilita la opción "Abrir vinculos en una pestaña nueva" tal como lo muestra ésta imagen.

Sherlock Holmes A Game of Shadows (2011) REMUX 1080p Latino

682 vistas

Información de Sherlock Holmes A Game of Shadows (2011) REMUX 1080p Latino

Datos de la película

  • Calidad: Full 1080p
  • Audio: Español Latino AC3 5.1 BLURAY - Ingles DTS 5.1 BLURAY
  • Subtitulos: Español Latino SRT- FORZADOS SRT
  • Resolución: 1920x1080p
  • Formato: MKV
  • Codec: H.264
  • Encoder: Dracarys
  • Mediainfo: Clic para Mostrar Datos Ver
  • Format                      : Matroska
    Format version              : Version 4
    File size                   : 18.4 GiB
    Duration                    : 2 h 8 min
    Overall bit rate mode       : Variable
    Overall bit rate            : 20.5 Mb/s
    Movie name                  : CinemaniaHDD.net
    Encoded date                : UTC 2020-01-15 00:17:06
    Writing application         : mkvmerge v38.0.0 ('The Silent Type') 64-bit
    Writing library             : libebml v1.3.9 + libmatroska v1.5.2

    Video
    ID                          : 1
    Format                      : AVC
    Format/Info                 : Advanced Video Codec
    Format profile              : High@L4.1
    Format settings             : CABAC / 2 Ref Frames
    Format settings, CABAC      : Yes
    Format settings, ReFrames   : 2 frames
    Format settings, GOP        : M=1, N=10
    Codec ID                    : V_MPEG4/ISO/AVC
    Duration                    : 2 h 8 min
    Bit rate mode               : Variable
    Bit rate                    : 18.5 Mb/s
    Width                       : 1 920 pixels
    Height                      : 1 080 pixels
    Display aspect ratio        : 16:9
    Frame rate mode             : Constant
    Frame rate                  : 23.976 (24000/1001) FPS
    Color space                 : YUV
    Chroma subsampling          : 4:2:0
    Bit depth                   : 8 bits
    Scan type                   : Progressive
    Bits/(Pixel*Frame)          : 0.373
    Stream size                 : 16.7 GiB (90%)
    Language                    : English
    Default                     : No
    Forced                      : No

    Audio #1
    ID                          : 2
    Format                      : DTS
    Format/Info                 : Digital Theater Systems
    Codec ID                    : A_DTS
    Duration                    : 2 h 8 min
    Bit rate mode               : Constant
    Bit rate                    : 1 509 kb/s
    Channel(s)                  : 6 channels
    Channel layout              : C L R Ls Rs LFE
    Sampling rate               : 48.0 kHz
    Frame rate                  : 93.750 FPS (512 SPF)
    Bit depth                   : 24 bits
    Compression mode            : Lossy
    Stream size                 : 1.36 GiB (7%)
    Language                    : English
    Default                     : No
    Forced                      : No

    Audio #2
    ID                          : 3
    Format                      : AC-3
    Format/Info                 : Audio Coding 3
    Commercial name             : Dolby Digital
    Codec ID                    : A_AC3
    Duration                    : 2 h 8 min
    Bit rate mode               : Constant
    Bit rate                    : 448 kb/s
    Channel(s)                  : 6 channels
    Channel layout              : L R C LFE Ls Rs
    Sampling rate               : 48.0 kHz
    Frame rate                  : 31.250 FPS (1536 SPF)
    Bit depth                   : 16 bits
    Compression mode            : Lossy
    Stream size                 : 413 MiB (2%)
    Language                    : Spanish
    Service kind                : Complete Main
    Default                     : Yes
    Forced                      : No

    Text #1
    ID                          : 4
    Format                      : UTF-8
    Codec ID                    : S_TEXT/UTF8
    Codec ID/Info               : UTF-8 Plain Text
    Duration                    : 1 h 52 min
    Bit rate                    : 1 b/s
    Count of elements           : 36
    Stream size                 : 1.09 KiB (0%)
    Language                    : Spanish
    Default                     : Yes
    Forced                      : Yes

    Text #2
    ID                          : 5
    Format                      : UTF-8
    Codec ID                    : S_TEXT/UTF8
    Codec ID/Info               : UTF-8 Plain Text
    Duration                    : 2 h 8 min
    Bit rate                    : 47 b/s
    Count of elements           : 1279
    Stream size                 : 44.4 KiB (0%)
    Language                    : Spanish
    Default                     : No
    Forced                      : No

    Text #3
    ID                          : 6
    Format                      : PGS
    Muxing mode                 : zlib
    Codec ID                    : S_HDMV/PGS
    Codec ID/Info               : Picture based subtitle format used on BDs/HD-DVDs
    Duration                    : 2 h 8 min
    Bit rate                    : 25.2 kb/s
    Count of elements           : 2558
    Stream size                 : 23.1 MiB (0%)
    Language                    : Spanish
    Default                     : No
    Forced                      : No

    Menu
    00:00:00.000                : en:Chapter 01
    00:09:17.974                : en:Chapter 02
    00:19:37.634                : en:Chapter 03
    00:30:46.803                : en:Chapter 04
    00:40:13.619                : en:Chapter 05
    00:50:28.984                : en:Chapter 06
    00:59:45.206                : en:Chapter 07
    01:09:20.781                : en:Chapter 08
    01:18:57.941                : en:Chapter 09
    01:30:08.361                : en:Chapter 10
    01:39:08.359                : en:Chapter 11
    01:49:50.208                : en:Chapter 12
    02:00:24.508                : en:Chapter 13

  • Peso: 18.4 GiB

Sinopsis

Sherlock Holmes (Robert Downey Jr.) siempre ha sido el tipo más listo de la habitación… hasta ahora. El Profesor Moriarty (Jared Harris), un genio del crimen, hace acto de aparición, y no sólo es el símil intelectual de Holmes, pero su capacidad para el mal, junto con una falta total de conciencia, en realidad puede darle una ventaja sobre el reconocido detective. Cuando encuentran muerto al príncipe heredero de Austria, la evidencia, según lo interpretado por el Inspector Lestrade (Eddie Marsan), apunta al suicidio. Pero Sherlock Holmes deduce que el príncipe ha sido víctima de un asesinato, un crimen que sólo es una pieza de un rompecabezas mucho más grande y portentoso diseñado por Moriarty. Mezclando los negocios con el placer, las pistas conducen a Holmes a un club de caballeros donde él y su hermano, Mycroft Holmes (Stephen Fry) brindan por la despedida de soltero del Dr. Watson.

Ficha técnica

Video trailer de la película

Enlaces de descarga

Rip de Bluray

Descargar Sherlock Holmes A Game of Shadows (2011) REMUX 1080p Latino




Aportes de DPeliculasHDmega la pass es:dpeliculashdmega.org Aportes de CinemaniaHD la pass es:cinemaniahdd.com
Guardado en : Acción , Aventura , Crimen , Misterio , Remux

Películas relacionadas

  • Hombre de familia (2000) REMUX 1080p Latino

    Hombre de familia (2000) REMUX 1080p Latino

    2000
    Hombre de familia (2000) REMUX 1080p Latino

    2h 1m 2000

    Descargar Hombre de familia (2000) REMUX 1080p Latino. Jack Campbell es un egocéntrico broker de Wall...

    Director: Robert Schroer

    Género: Comedia

    Actores: Wass Stevens

  • Anon (2018) REMUX 1080p Latino

    Anon (2018) REMUX 1080p Latino

    2018
    Anon (2018) REMUX 1080p Latino

    1h 40m 2018

    Descargar Anon (2018) REMUX 1080p Latino. Anon nos lleva hasta un futuro no muy lejano al estilo soviético,...

    Director: Sarah Campbell

    Género: Ciencia ficción

    Actores: Zion Lee

descargar Sherlock Holmes A Game of Shadows (2011) REMUX 1080p Latino Full 1080p 1080p gratis, Sherlock Holmes A Game of Shadows (2011) REMUX 1080p Latino Full 1080p mega 1 link, Sherlock Holmes A Game of Shadows (2011) REMUX 1080p Latino Full 1080p pelicula completa, descargar Sherlock Holmes A Game of Shadows (2011) REMUX 1080p Latino Full 1080p gratis en mega.

Sherlock Holmes A Game of Shadows (2011) REMUX 1080p Latino pelicula full hd, Sherlock Holmes A Game of Shadows (2011) REMUX 1080p Latino mega latino, Sherlock Holmes A Game of Shadows (2011) REMUX 1080p Latino 4k latino, Sherlock Holmes A Game of Shadows (2011) REMUX 1080p Latino pelicula completa, Sherlock Holmes A Game of Shadows (2011) REMUX 1080p Latino descargar gratis, descargar Sherlock Holmes A Game of Shadows (2011) REMUX 1080p Latino pelicula latino, Sherlock Holmes A Game of Shadows (2011) REMUX 1080p Latino 1 link mega, Sherlock Holmes A Game of Shadows (2011) REMUX 1080p Latino 1 link google drive, Sherlock Holmes A Game of Shadows (2011) REMUX 1080p Latino hd 1080p latino.
Comentarios 0