Sherlock Holmes (2009) 4K UHD HDR Latino

29 vistas
1 estrella2 estrellas3 estrellas4 estrellas5 estrellas (Ninguna valoración todavía)
Cargando...

Información de Sherlock Holmes (2009) 4K UHD HDR Latino

Datos de la película

  • Calidad: 4K HDR
  • Audio: Español Latino AC3 5.1 BLURAY - Ingles DTS 5.1 BLURAY
  • Subtitulos: Español Latino PGS - Ingles PGS
  • Resolución: 3840x2160p
  • Formato: MKV
  • Codec: HEVC
  • Encoder: CinefiloCool
  • Mediainfo: Clic para Mostrar Datos Ver
  • Sherlock Holmes (2009) UHD HDR Latino-CMHDD.mkv
    Format                      : Matroska
    Format version              : Version 4
    File size                   : 24.7 GiB
    Duration                    : 2 h 8 min
    Overall bit rate            : 27.5 Mb/s
    Movie name                  : Sherlock Holmes (2009) CinemaniaHDD.Net
    Encoded date                : UTC 2021-01-06 04:19:10
    Writing application         : mkvmerge v51.0.0 ('I Wish') 64-bit
    Writing library             : libebml v1.4.0 + libmatroska v1.6.2
    Attachments                 : CINEMANIAHD.png

    Video
    ID                          : 1
    Format                      : HEVC
    Format/Info                 : High Efficiency Video Coding
    Format profile              : Main 10@L5.1@High
    HDR format                  : SMPTE ST 2086, HDR10 compatible
    Codec ID                    : V_MPEGH/ISO/HEVC
    Duration                    : 2 h 8 min
    Bit rate                    : 25.5 Mb/s
    Width                       : 3 840 pixels
    Height                      : 2 160 pixels
    Display aspect ratio        : 16:9
    Frame rate mode             : Constant
    Frame rate                  : 23.976 (24000/1001) FPS
    Color space                 : YUV
    Chroma subsampling          : 4:2:0 (Type 2)
    Bit depth                   : 10 bits
    Bits/(Pixel*Frame)          : 0.128
    Stream size                 : 22.9 GiB (93%)
    Title                       : 2160p HDR [Bluray]
    Writing library             : x265 3.4+26-ga82c6c7a7:[Windows][GCC 10.2.1][64 bit] 10bit
    Encoding settings           : cpuid=1176575 / frame-threads=6 / numa-pools=36 / wpp / no-pmode / no-pme / no-psnr / no-ssim / log-level=2 / input-csp=1 / input-res=3840x2160 / interlace=0 / total-frames=184857 / level-idc=51 / high-tier=1 / uhd-bd=0 / ref=4 / no-allow-non-conformance / repeat-headers / annexb / aud / hrd / info / hash=0 / no-temporal-layers / open-gop / min-keyint=23 / keyint=250 / gop-lookahead=0 / bframes=4 / b-adapt=2 / b-pyramid / bframe-bias=0 / rc-lookahead=25 / lookahead-slices=4 / scenecut=40 / hist-scenecut=0 / radl=0 / no-splice / no-intra-refresh / ctu=64 / min-cu-size=8 / rect / no-amp / max-tu-size=32 / tu-inter-depth=1 / tu-intra-depth=1 / limit-tu=0 / rdoq-level=2 / dynamic-rd=0.00 / no-ssim-rd / signhide / no-tskip / nr-intra=0 / nr-inter=0 / no-constrained-intra / strong-intra-smoothing / max-merge=3 / limit-refs=3 / limit-modes / me=3 / subme=3 / merange=57 / temporal-mvp / no-frame-dup / no-hme / weightp / no-weightb / no-analyze-src-pics / deblock=-3:-3 / no-sao / no-sao-non-deblock / rd=4 / selective-sao=0 / no-early-skip / rskip / no-fast-intra / no-tskip-fast / no-cu-lossless / no-b-intra / no-splitrd-skip / rdpenalty=0 / psy-rd=2.00 / psy-rdoq=1.00 / no-rd-refine / no-lossless / cbqpoffs=0 / crqpoffs=0 / rc=crf / crf=14.0 / qcomp=0.60 / qpstep=4 / stats-write=0 / stats-read=0 / vbv-maxrate=160000 / vbv-bufsize=160000 / vbv-init=0.9 / min-vbv-fullness=50.0 / max-vbv-fullness=80.0 / crf-max=0.0 / crf-min=0.0 / ipratio=1.40 / pbratio=1.30 / aq-mode=2 / aq-strength=1.00 / cutree / zone-count=0 / no-strict-cbr / qg-size=32 / no-rc-grain / qpmax=69 / qpmin=0 / no-const-vbv / sar=1 / overscan=0 / videoformat=5 / range=0 / colorprim=9 / transfer=16 / colormatrix=9 / chromaloc=1 / chromaloc-top=2 / chromaloc-bottom=2 / display-window=0 / master-display=G(13250,34500)B(7500,3000)R(34000,16000)WP(15635,16450)L(40000000,50) / cll=343,106 / min-luma=0 / max-luma=1023 / log2-max-poc-lsb=8 / vui-timing-info / vui-hrd-info / slices=1 / no-opt-qp-pps / no-opt-ref-list-length-pps / no-multi-pass-opt-rps / scenecut-bias=0.05 / hist-threshold=0.03 / no-opt-cu-delta-qp / no-aq-motion / hdr10 / hdr10-opt / no-dhdr10-opt / no-idr-recovery-sei / analysis-reuse-level=0 / analysis-save-reuse-level=0 / analysis-load-reuse-level=0 / scale-factor=0 / refine-intra=0 / refine-inter=0 / refine-mv=1 / refine-ctu-distortion=0 / no-limit-sao / ctu-info=0 / no-lowpass-dct / refine-analysis-type=0 / copy-pic=1 / max-ausize-factor=1.0 / no-dynamic-refine / no-single-sei / no-hevc-aq / no-svt / no-field / qp-adaptation-range=1.00 / no-scenecut-aware-qpconformance-window-offsets / right=0 / bottom=0 / decoder-max-rate=0 / no-vbv-live-multi-pass
    Default                     : Yes
    Forced                      : No
    Color range                 : Limited
    Color primaries             : BT.2020
    Transfer characteristics    : PQ
    Matrix coefficients         : BT.2020 non-constant
    Mastering display color pri : Display P3
    Mastering display luminance : min: 0.0050 cd/m2, max: 4000 cd/m2
    Maximum Content Light Level : 343 cd/m2
    Maximum Frame-Average Light : 106 cd/m2

    Audio #1
    ID                          : 2
    Format                      : AC-3
    Format/Info                 : Audio Coding 3
    Commercial name             : Dolby Digital
    Codec ID                    : A_AC3
    Duration                    : 2 h 8 min
    Bit rate mode               : Constant
    Bit rate                    : 448 kb/s
    Channel(s)                  : 6 channels
    Channel layout              : L R C LFE Ls Rs
    Sampling rate               : 48.0 kHz
    Frame rate                  : 31.250 FPS (1536 SPF)
    Compression mode            : Lossy
    Stream size                 : 412 MiB (2%)
    Title                       : Español Latino [CinemaniaHDD]
    Language                    : Spanish
    Service kind                : Complete Main
    Default                     : Yes
    Forced                      : No

    Audio #2
    ID                          : 3
    Format                      : DTS
    Format/Info                 : Digital Theater Systems
    Codec ID                    : A_DTS
    Duration                    : 2 h 8 min
    Bit rate mode               : Constant
    Bit rate                    : 1 509 kb/s
    Channel(s)                  : 6 channels
    Channel layout              : C L R Ls Rs LFE
    Sampling rate               : 48.0 kHz
    Frame rate                  : 93.750 FPS (512 SPF)
    Bit depth                   : 24 bits
    Compression mode            : Lossy
    Stream size                 : 1.35 GiB (5%)
    Title                       : Ingles [CinemaniaHDD]
    Language                    : English
    Default                     : No
    Forced                      : No

    Text #1
    ID                          : 4
    Format                      : PGS
    Muxing mode                 : zlib
    Codec ID                    : S_HDMV/PGS
    Codec ID/Info               : Picture based subtitle format used on BDs/HD-DVDs
    Duration                    : 1 h 41 min
    Bit rate                    : 482 b/s
    Count of elements           : 50
    Stream size                 : 360 KiB (0%)
    Title                       : Sub_Forzados [PGS]
    Language                    : Spanish
    Default                     : No
    Forced                      : No

    Text #2
    ID                          : 5
    Format                      : PGS
    Muxing mode                 : zlib
    Codec ID                    : S_HDMV/PGS
    Codec ID/Info               : Picture based subtitle format used on BDs/HD-DVDs
    Duration                    : 2 h 6 min
    Bit rate                    : 28.4 kb/s
    Count of elements           : 2946
    Stream size                 : 25.7 MiB (0%)
    Title                       : Sub_Esp [PGS]
    Language                    : Spanish
    Default                     : No
    Forced                      : No

    Text #3
    ID                          : 6
    Format                      : PGS
    Muxing mode                 : zlib
    Codec ID                    : S_HDMV/PGS
    Codec ID/Info               : Picture based subtitle format used on BDs/HD-DVDs
    Duration                    : 2 h 0 min
    Bit rate                    : 32.8 kb/s
    Count of elements           : 3016
    Stream size                 : 28.2 MiB (0%)
    Title                       : Sub_Eng [PGS]
    Language                    : English
    Default                     : No
    Forced                      : No

    Text #4
    ID                          : 7
    Format                      : UTF-8
    Codec ID                    : S_TEXT/UTF8
    Codec ID/Info               : UTF-8 Plain Text
    Duration                    : 1 h 41 min
    Bit rate                    : 0 b/s
    Count of elements           : 25
    Stream size                 : 654 Bytes (0%)
    Title                       : Sub_Forzados
    Language                    : Spanish
    Default                     : Yes
    Forced                      : No

    Text #5
    ID                          : 8
    Format                      : UTF-8
    Codec ID                    : S_TEXT/UTF8
    Codec ID/Info               : UTF-8 Plain Text
    Duration                    : 1 h 58 min
    Bit rate                    : 61 b/s
    Count of elements           : 1411
    Stream size                 : 53.9 KiB (0%)
    Title                       : Sub_Esp
    Language                    : Spanish
    Default                     : No
    Forced                      : No

    Menu
    00:00:00.000                : en:Chapter 01
    00:06:51.161                : en:Chapter 02
    00:11:34.819                : en:Chapter 03
    00:15:46.279                : en:Chapter 04
    00:19:13.486                : en:Chapter 05
    00:23:33.662                : en:Chapter 06
    00:27:54.464                : en:Chapter 07
    00:32:05.841                : en:Chapter 08
    00:37:13.106                : en:Chapter 09
    00:40:54.994                : en:Chapter 10
    00:44:41.804                : en:Chapter 11
    00:47:44.278                : en:Chapter 12
    00:50:56.762                : en:Chapter 13
    00:55:22.194                : en:Chapter 14
    00:59:09.045                : en:Chapter 15
    01:03:09.369                : en:Chapter 16
    01:06:12.635                : en:Chapter 17
    01:11:18.774                : en:Chapter 18
    01:14:43.938                : en:Chapter 19
    01:17:40.906                : en:Chapter 20
    01:23:39.681                : en:Chapter 21
    01:26:11.541                : en:Chapter 22
    01:31:01.748                : en:Chapter 23
    01:35:19.964                : en:Chapter 24
    01:39:50.568                : en:Chapter 25
    01:44:25.342                : en:Chapter 26
    01:48:26.542                : en:Chapter 27
    01:54:07.299                : en:Chapter 28
    01:56:12.090                : en:Chapter 29
    02:00:30.807                : en:Chapter 30

  • Peso: 24.7 GiB

Sinopsis

Descargar Sherlock Holmes (2009) 4K UHD HDR Latino. Mostrando unas habilidades para luchar tan letales como su legendaria agudeza intelectual, Holmes peleará como nunca para acabar con un nuevo enemigo y desenmarañar así un complot mortal que podría destruir el país.

Ficha técnica

Video trailer de la película

Enlaces de descarga

Rip de Bluray

Descargar Sherlock Holmes (2009) 4K UHD HDR Latino




Aportes de DPeliculasHDmega la pass es:dpeliculashdmega.org Aportes de CinemaniaHD la pass es:cinemaniahdd.com
Guardado en : Acción , 4K HDR , 4K UHD , Aventura , Crimen , Misterio

Películas relacionadas

  • Van Helsing (2004) 1080p Latino

    Van Helsing (2004) 1080p Latino

    2004
    Van Helsing (2004) 1080p Latino

    0.0 2h 11m 2004

    Descargar Van Helsing (2004) 1080p Latino. Siglo XIX. En medio de los montes de los Cárpatos está la...

    Director: Sylvie Chesneau

    Género: Acción

    Actores: Zuzana Durdinová

  • Van Helsing (2004) Full HD 1080p Latino

    Van Helsing (2004) Full HD 1080p Latino

    2004
    Van Helsing (2004) Full HD 1080p Latino

    4.9 2h 11m 2004

    Descargar Van Helsing (2004) Full HD 1080p Latino. Siglo XIX. En medio de los montes de los Cárpatos...

    Director: Sylvie Chesneau

    Género: Acción

    Actores: Will Kemp

  • Van Helsing (2004) REMUX 1080p Latino

    Van Helsing (2004) REMUX 1080p Latino

    2004
    Van Helsing (2004) REMUX 1080p Latino

    5.0 2h 11m 2004

    Descargar Van Helsing (2004) REMUX 1080p Latino. Siglo XIX. En medio de los montes de los Cárpatos está...

    Director: Sylvie Chesneau

    Género: Acción

    Actores: Zuzana Durdinová

  • Van Helsing (2004) 4K UHD HDR Latino

    Van Helsing (2004) 4K UHD HDR Latino

    2004
    Van Helsing (2004) 4K UHD HDR Latino

    0.0 2h 11m 2004

    Descargar Van Helsing (2004) 4K UHD HDR Latino. Siglo XIX. En medio de los montes de los Cárpatos está...

    Director: Sylvie Chesneau

    Género: Acción

    Actores: Zuzana Durdinová

  • Déjà Vu (2006) 1080p Latino

    Déjà Vu (2006) 1080p Latino

    2006
    Déjà Vu (2006) 1080p Latino

    0.0 2h 6m 2006

    Descargar Déjà Vu (2006) 1080p Latino. Tras una terrible explosión de una bomba en un Ferry de Nueva...

    Director: Tony Scott

    Género: Acción

    Actores: Yvonne Landry

Comentarios 0