×

¿Problemas para descargar con Mozilla, EDGE? Deshabilita la opción "Abrir vinculos en una pestaña nueva" tal como lo muestra ésta imagen.

LEGO DC: ¡Shazam! Magia y Monstruos (2020) REMUX 1080p Latino

288 vistas

Información de LEGO DC: ¡Shazam! Magia y Monstruos (2020) REMUX 1080p Latino

Datos de la película

  • Calidad: Full 1080p
  • Audio: Español Latino AC3 2.0 BLURAY - Ingles DTS 5.1 BLURAY
  • Subtitulos: Español Latino SRT- FORZADOS SRT
  • Resolución: 1920x1080p
  • Formato: MKV
  • Codec: H.264
  • Encoder: Melkor
  • Mediainfo: Clic para Mostrar Datos Ver
  • Shazam Magia y Monstruos (2020) REMUX 1080p Latino.mkv
    Format                      : Matroska
    Format version              : Version 4
    File size                   : 10.1 GiB
    Duration                    : 1 h 21 min
    Overall bit rate mode       : Variable
    Overall bit rate            : 17.8 Mb/s
    Movie name                  : Shazam Magic And Monsters (2020) CinemaniaHDD.Net
    Encoded date                : UTC 2020-06-10 04:14:32
    Writing application         : mkvmerge v46.0.0 ('No Deeper Escape') 64-bit
    Writing library             : libebml v1.3.10 + libmatroska v1.5.2
    Attachments                 : CINEMANIAHD.png

    Video
    ID                          : 1
    ID in the original source m : 4113 (0x1011)
    Format                      : AVC
    Format/Info                 : Advanced Video Codec
    Format profile              : High@L4.1
    Format settings             : CABAC / 4 Ref Frames
    Format settings, CABAC      : Yes
    Format settings, Reference  : 4 frames
    Codec ID                    : V_MPEG4/ISO/AVC
    Duration                    : 1 h 21 min
    Bit rate mode               : Variable
    Bit rate                    : 15.2 Mb/s
    Maximum bit rate            : 38.0 Mb/s
    Width                       : 1 920 pixels
    Height                      : 1 080 pixels
    Display aspect ratio        : 16:9
    Frame rate mode             : Constant
    Frame rate                  : 23.976 (24000/1001) FPS
    Color space                 : YUV
    Chroma subsampling          : 4:2:0
    Bit depth                   : 8 bits
    Scan type                   : Progressive
    Bits/(Pixel*Frame)          : 0.305
    Stream size                 : 8.63 GiB (85%)
    Title                       : REMUX 1080p [CinemaniaHDD]
    Language                    : English
    Default                     : Yes
    Forced                      : No
    Original source medium      : Blu-ray

    Audio #1
    ID                          : 2
    ID in the original source m : 4354 (0x1102)
    Format                      : AC-3
    Format/Info                 : Audio Coding 3
    Commercial name             : Dolby Digital
    Codec ID                    : A_AC3
    Duration                    : 1 h 21 min
    Bit rate mode               : Constant
    Bit rate                    : 192 kb/s
    Channel(s)                  : 2 channels
    Channel layout              : L R
    Sampling rate               : 48.0 kHz
    Frame rate                  : 31.250 FPS (1536 SPF)
    Compression mode            : Lossy
    Stream size                 : 112 MiB (1%)
    Title                       : Español Latino [CinemaniaHDD]
    Language                    : Spanish
    Service kind                : Complete Main
    Default                     : Yes
    Forced                      : No
    Original source medium      : Blu-ray

    Audio #2
    ID                          : 3
    ID in the original source m : 4352 (0x1100)
    Format                      : DTS XLL
    Format/Info                 : Digital Theater Systems
    Commercial name             : DTS-HD Master Audio
    Codec ID                    : A_DTS
    Duration                    : 1 h 21 min
    Bit rate mode               : Variable
    Bit rate                    : 2 393 kb/s
    Channel(s)                  : 6 channels
    Channel layout              : C L R Ls Rs LFE
    Sampling rate               : 48.0 kHz
    Frame rate                  : 93.750 FPS (512 SPF)
    Bit depth                   : 16 bits
    Compression mode            : Lossless
    Stream size                 : 1.36 GiB (13%)
    Title                       : Ingles [CinemaniaHDD]
    Language                    : English
    Default                     : No
    Forced                      : No
    Original source medium      : Blu-ray

    Text #1
    ID                          : 4
    Format                      : UTF-8
    Codec ID                    : S_TEXT/UTF8
    Codec ID/Info               : UTF-8 Plain Text
    Duration                    : 1 h 2 min
    Bit rate                    : 0 b/s
    Count of elements           : 18
    Stream size                 : 407 Bytes (0%)
    Title                       : Forzados-SRT [CinemaniaHDD]
    Language                    : Spanish
    Default                     : Yes
    Forced                      : No

    Text #2
    ID                          : 5
    Format                      : UTF-8
    Codec ID                    : S_TEXT/UTF8
    Codec ID/Info               : UTF-8 Plain Text
    Duration                    : 1 h 18 min
    Bit rate                    : 74 b/s
    Count of elements           : 1358
    Stream size                 : 42.6 KiB (0%)
    Title                       : Español-SRT [CinemaniaHDD]
    Language                    : Spanish
    Default                     : No
    Forced                      : No

    Text #3
    ID                          : 6
    Format                      : UTF-8
    Codec ID                    : S_TEXT/UTF8
    Codec ID/Info               : UTF-8 Plain Text
    Duration                    : 1 h 18 min
    Bit rate                    : 64 b/s
    Count of elements           : 1281
    Stream size                 : 37.2 KiB (0%)
    Title                       : Ingles-SRT [CinemaniaHDD]
    Language                    : English
    Default                     : No
    Forced                      : No

    Menu
    00:00:00.000                : en:Chapter 01
    00:08:35.890                : en:Chapter 02
    00:17:30.382                : en:Chapter 03
    00:27:37.822                : en:Chapter 04
    00:36:30.688                : en:Chapter 05
    00:44:25.204                : en:Chapter 06
    00:51:21.453                : en:Chapter 07
    00:57:24.232                : en:Chapter 08
    01:04:08.719                : en:Chapter 09
    01:13:58.016                : en:Chapter 10
    01:18:54.187                : en:Chapter 11

  • Peso: 10.1 GiB

Sinopsis

Descargar LEGO DC: ¡Shazam! Magia y Monstruos (2020) REMUX 1080p Latino. ¡Ya es hora de que la Liga de la Justicia tome nota de Shazam! (Sean Astin), pero unirse al mejor equipo de superhéroes del mundo es mucho más difícil cuando todos se han convertido en niños. LEGO DC: ¡Shazam! Magic and Monsters le enseñará a Billy Batson las virtudes de la confianza mientras el héroe lucha contra Mr. Mind y Black Adam.

Ficha técnica

Video trailer de la película

Enlaces de descarga

Rip de Bluray

Descargar LEGO DC: ¡Shazam! Magia y Monstruos (2020) REMUX 1080p Latino




Aportes de DPeliculasHDmega la pass es:dpeliculashdmega.org Aportes de CinemaniaHD la pass es:cinemaniahdd.com

Películas relacionadas

descargar LEGO DC: ¡Shazam! Magia y Monstruos (2020) REMUX 1080p Latino Full 1080p 1080p gratis, LEGO DC: ¡Shazam! Magia y Monstruos (2020) REMUX 1080p Latino Full 1080p mega 1 link, LEGO DC: ¡Shazam! Magia y Monstruos (2020) REMUX 1080p Latino Full 1080p pelicula completa, descargar LEGO DC: ¡Shazam! Magia y Monstruos (2020) REMUX 1080p Latino Full 1080p gratis en mega.

LEGO DC: ¡Shazam! Magia y Monstruos (2020) REMUX 1080p Latino pelicula full hd, LEGO DC: ¡Shazam! Magia y Monstruos (2020) REMUX 1080p Latino mega latino, LEGO DC: ¡Shazam! Magia y Monstruos (2020) REMUX 1080p Latino 4k latino, LEGO DC: ¡Shazam! Magia y Monstruos (2020) REMUX 1080p Latino pelicula completa, LEGO DC: ¡Shazam! Magia y Monstruos (2020) REMUX 1080p Latino descargar gratis, descargar LEGO DC: ¡Shazam! Magia y Monstruos (2020) REMUX 1080p Latino pelicula latino, LEGO DC: ¡Shazam! Magia y Monstruos (2020) REMUX 1080p Latino 1 link mega, LEGO DC: ¡Shazam! Magia y Monstruos (2020) REMUX 1080p Latino 1 link google drive, LEGO DC: ¡Shazam! Magia y Monstruos (2020) REMUX 1080p Latino hd 1080p latino.
Comentarios 0