×

¿Problemas para descargar con Mozilla, EDGE? Deshabilita la opción "Abrir vinculos en una pestaña nueva" tal como lo muestra ésta imagen.

¡Shazam! La furia de los dioses (2023) MA WEB-DL 1080p Latino

572 vistas

Información de ¡Shazam! La furia de los dioses (2023) MA WEB-DL 1080p Latino

Datos de la película

  • Calidad: WEBDL
  • Audio: Español Latino AC3 5.1 WEB-DL - Ingles AC3 5.1 WEB-DL
  • Subtitulos: Español Latino SRT- FORZADOS SRT
  • Resolución: 1920x1080p
  • Formato: MKV
  • Codec: H.264
  • Encoder: Melkor
  • Mediainfo: Clic para Mostrar Datos Ver
  • Shazam La furia de los dioses (2023) MA WebDL 1080p Latino.mkv
    Format                      : Matroska
    Format version              : Version 4
    File size                   : 8.21 GiB
    Duration                    : 2 h 10 min
    Overall bit rate            : 9 027 kb/s
    Movie name                  : Shazam! Fury of the Gods (2023) CinemaniaHDD.Net
    Encoded date                : UTC 2023-04-07 05:30:35
    Writing application         : mkvmerge v56.1.0 ('My Friend') 64-bit
    Writing library             : libebml v1.4.2 + libmatroska v1.6.4
    Attachments                 : CINEMANIAHD.png
    Site                        : CinemaniaHDD.Net
    Uploader                    : Melkor

    Video
    ID                          : 1
    Format                      : AVC
    Format/Info                 : Advanced Video Codec
    Format profile              : High@L4
    Format settings             : CABAC / 4 Ref Frames
    Format settings, CABAC      : Yes
    Format settings, Reference  : 4 frames
    Codec ID                    : V_MPEG4/ISO/AVC
    Duration                    : 2 h 10 min
    Bit rate                    : 8 000 kb/s
    Width                       : 1 920 pixels
    Height                      : 1 080 pixels
    Display aspect ratio        : 16:9
    Frame rate mode             : Constant
    Frame rate                  : 23.976 (24000/1001) FPS
    Color space                 : YUV
    Chroma subsampling          : 4:2:0
    Bit depth                   : 8 bits
    Scan type                   : Progressive
    Bits/(Pixel*Frame)          : 0.161
    Stream size                 : 7.16 GiB (87%)
    Title                       : Web HD1080p [CinemaniaHDD]
    Writing library             : x264 core 164 r3094 bfc87b7
    Encoding settings           : cabac=1 / ref=4 / deblock=1:-1:-1 / analyse=0x3:0x133 / me=umh / subme=9 / psy=1 / psy_rd=1.00:0.15 / mixed_ref=1 / me_range=16 / chroma_me=1 / trellis=2 / 8x8dct=1 / cqm=0 / deadzone=21,11 / fast_pskip=1 / chroma_qp_offset=-3 / threads=12 / lookahead_threads=1 / sliced_threads=0 / nr=0 / decimate=1 / interlaced=0 / bluray_compat=0 / stitchable=1 / constrained_intra=0 / bframes=3 / b_pyramid=2 / b_adapt=2 / b_bias=0 / direct=3 / weightb=1 / open_gop=0 / weightp=2 / keyint=48 / keyint_min=4 / scenecut=0 / intra_refresh=0 / rc_lookahead=48 / rc=abr / mbtree=1 / bitrate=8000 / ratetol=1.0 / qcomp=0.60 / qpmin=0 / qpmax=69 / qpstep=4 / vbv_maxrate=8800 / vbv_bufsize=16000 / nal_hrd=none / filler=0 / ip_ratio=1.40 / aq=1:1.00
    Language                    : English
    Default                     : Yes
    Forced                      : Yes
    Color range                 : Limited
    Color primaries             : BT.709
    Transfer characteristics    : BT.709
    Matrix coefficients         : BT.709

    Audio #1
    ID                          : 2
    Format                      : AC-3
    Format/Info                 : Audio Coding 3
    Commercial name             : Dolby Digital
    Codec ID                    : A_AC3
    Duration                    : 2 h 10 min
    Bit rate mode               : Constant
    Bit rate                    : 384 kb/s
    Channel(s)                  : 6 channels
    Channel layout              : L R C LFE Ls Rs
    Sampling rate               : 48.0 kHz
    Frame rate                  : 31.250 FPS (1536 SPF)
    Compression mode            : Lossy
    Delay relative to video     : 300 ms
    Stream size                 : 358 MiB (4%)
    Title                       : Español Latino [CinemaniaHDD]
    Language                    : Spanish
    Service kind                : Complete Main
    Default                     : Yes
    Forced                      : Yes

    Audio #2
    ID                          : 3
    Format                      : E-AC-3 JOC
    Format/Info                 : Enhanced AC-3 with Joint Object Coding
    Commercial name             : Dolby Digital Plus with Dolby Atmos
    Codec ID                    : A_EAC3
    Duration                    : 2 h 10 min
    Bit rate mode               : Constant
    Bit rate                    : 768 kb/s
    Channel(s)                  : 6 channels
    Channel layout              : L R C LFE Ls Rs
    Sampling rate               : 48.0 kHz
    Frame rate                  : 31.250 FPS (1536 SPF)
    Compression mode            : Lossy
    Delay relative to video     : 83 ms
    Stream size                 : 715 MiB (9%)
    Title                       : Ingles [CinemaniaHDD]
    Language                    : English
    Service kind                : Complete Main
    Default                     : No
    Forced                      : No
    Complexity index            : 16
    Number of dynamic objects   : 15
    Bed channel count           : 1 channel
    Bed channel configuration   : LFE

    Text #1
    ID                          : 4
    Format                      : UTF-8
    Codec ID                    : S_TEXT/UTF8
    Codec ID/Info               : UTF-8 Plain Text
    Duration                    : 1 h 40 min
    Bit rate                    : 1 b/s
    Count of elements           : 29
    Stream size                 : 945 Bytes (0%)
    Title                       : Forzados-SRT [CinemaniaHDD]
    Language                    : Spanish
    Default                     : Yes
    Forced                      : Yes

    Text #2
    ID                          : 5
    Format                      : UTF-8
    Codec ID                    : S_TEXT/UTF8
    Codec ID/Info               : UTF-8 Plain Text
    Duration                    : 2 h 8 min
    Bit rate                    : 53 b/s
    Count of elements           : 1709
    Stream size                 : 50.8 KiB (0%)
    Title                       : Español-SRT [CinemaniaHDD]
    Language                    : Spanish
    Default                     : No
    Forced                      : No

    Text #3
    ID                          : 6
    Format                      : UTF-8
    Codec ID                    : S_TEXT/UTF8
    Codec ID/Info               : UTF-8 Plain Text
    Duration                    : 2 h 8 min
    Bit rate                    : 56 b/s
    Count of elements           : 1851
    Stream size                 : 53.4 KiB (0%)
    Title                       : Ingles-SRT [CinemaniaHDD]
    Language                    : English
    Default                     : No
    Forced                      : No

  • Peso: 8.21 GiB

Sinopsis

Descargar ¡Shazam! La furia de los dioses (2023) MA WEB-DL 1080p Latino. Billy Batson y sus hermanos adoptivos, que se transforman en superhéroes al decir «¡Shazam!», se ven obligados a volver a la acción y luchar contra las Hijas de Atlas, a quienes deben evitar que use un arma que podría destruir el mundo.

Ficha técnica

Video trailer de la película

Enlaces de descarga

Rip de Bluray

Descargar ¡Shazam! La furia de los dioses (2023) MA WEB-DL 1080p Latino




Aportes de DPeliculasHDmega la pass es:dpeliculashdmega.org Aportes de CinemaniaHD la pass es:cinemaniahdd.com Aportes recientes:cinemaniahdd.net
Guardado en : Acción , Comedia , Fantasía

Películas relacionadas

  • Spider-Man 2 (2004) REMUX 4K HDR Latino – CMHDD

    Spider-Man 2 (2004) REMUX 4K HDR Latino – CMHDD

    2004
    Spider-Man 2 (2004) REMUX 4K HDR Latino – CMHDD

    2h 7m 2004

    Han pasado dos años desde que el tranquilo Peter Parker dejó a Mary Jane Watson, su gran amor, y decidió...

    Director: Trudy Ramirez

    Género: Acción

    Actores: Zachry Rogers

  • Scary Movie 5 (2013) REMUX 1080p Latino – CMHDD

    Scary Movie 5 (2013) REMUX 1080p Latino – CMHDD

    2013
    Scary Movie 5 (2013) REMUX 1080p Latino – CMHDD

    1h 28m 2013

    Los felizmente casados Dan y Jody empiezan a observar algunos fenómenos extraños en su casa tras volver...

    Director: Tim Fitzgerald

    Género: Comedia

    Actores: Zoe Pessin

  • Scary Movie 4 (2006) REMUX 1080p Latino – CMHDD

    Scary Movie 4 (2006) REMUX 1080p Latino – CMHDD

    2006
    Scary Movie 4 (2006) REMUX 1080p Latino – CMHDD

    1h 29m 2006

    Una nueva entrega de la franquicia que parodia los últimos títulos del cine americano. Esta vez, la...

    Director: Steve Eathorne

    Género: Comedia

    Actores: YoungBloodZ

  • Scary Movie 3 (2003) REMUX 1080p Latino – CMHDD

    Scary Movie 3 (2003) REMUX 1080p Latino – CMHDD

    2003
    Scary Movie 3 (2003) REMUX 1080p Latino – CMHDD

    1h 25m 2003

    Después de haberlo pasado fatal -eso siempre según se mire- en las dos anteriores entregas, Cindy Campbell...

    Director: Wendy L. Adjoury

    Género: Comedia

    Actores: William S. Taylor

descargar ¡Shazam! La furia de los dioses (2023) MA WEB-DL 1080p Latino WEBDL 1080p gratis, ¡Shazam! La furia de los dioses (2023) MA WEB-DL 1080p Latino WEBDL mega 1 link, ¡Shazam! La furia de los dioses (2023) MA WEB-DL 1080p Latino WEBDL pelicula completa, descargar ¡Shazam! La furia de los dioses (2023) MA WEB-DL 1080p Latino WEBDL gratis en mega.

¡Shazam! La furia de los dioses (2023) MA WEB-DL 1080p Latino pelicula full hd, ¡Shazam! La furia de los dioses (2023) MA WEB-DL 1080p Latino mega latino, ¡Shazam! La furia de los dioses (2023) MA WEB-DL 1080p Latino 4k latino, ¡Shazam! La furia de los dioses (2023) MA WEB-DL 1080p Latino pelicula completa, ¡Shazam! La furia de los dioses (2023) MA WEB-DL 1080p Latino descargar gratis, descargar ¡Shazam! La furia de los dioses (2023) MA WEB-DL 1080p Latino pelicula latino, ¡Shazam! La furia de los dioses (2023) MA WEB-DL 1080p Latino 1 link mega, ¡Shazam! La furia de los dioses (2023) MA WEB-DL 1080p Latino 1 link google drive, ¡Shazam! La furia de los dioses (2023) MA WEB-DL 1080p Latino hd 1080p latino.
Comentarios 1