×

¿Problemas para descargar con Mozilla, EDGE? Deshabilita la opción "Abrir vinculos en una pestaña nueva" tal como lo muestra ésta imagen.

¡Shazam! La furia de los dioses (2023) WEB-DL 4K UHD HDR/DV Latino

345 vistas

Información de ¡Shazam! La furia de los dioses (2023) WEB-DL 4K UHD HDR/DV Latino

Datos de la película

  • Calidad: WEBDL
  • Audio: Español Latino AC3 5.1 WEB-DL - Ingles AC3 5.1 WEB-DL
  • Subtitulos: Español Latino SRT- FORZADOS SRT
  • Resolución: 3840x1606p
  • Formato: MKV
  • Codec: HEVC
  • Encoder: Melkor
  • Mediainfo: Clic para Mostrar Datos Ver
  • Shazam La furia de los dioses (2023) WEB UHD HDR-DV Latino.mkv
    Format                      : Matroska
    Format version              : Version 4
    File size                   : 23.2 GiB
    Duration                    : 2 h 10 min
    Overall bit rate            : 25.5 Mb/s
    Movie name                  : Shazam Fury of the Gods (2023) CinemaniaHDD.Net
    Encoded date                : UTC 2023-04-07 06:10:18
    Writing application         : mkvmerge v56.1.0 ('My Friend') 64-bit
    Writing library             : libebml v1.4.2 + libmatroska v1.6.4
    Attachments                 : CINEMANIAHD.png
    Site                        : CinemaniaHDD.Net
    Uploader                    : Melkor

    Video
    ID                          : 1
    Format                      : HEVC
    Format/Info                 : High Efficiency Video Coding
    Format profile              : Main 10@L5@High
    HDR format                  : Dolby Vision, Version 1.0, dvhe.08.06, BL+RPU, HDR10 compatible / SMPTE ST 2094 App 4, Version 1, HDR10+ Profile B compatible
    Codec ID                    : V_MPEGH/ISO/HEVC
    Duration                    : 2 h 10 min
    Bit rate                    : 24.4 Mb/s
    Width                       : 3 840 pixels
    Height                      : 1 606 pixels
    Display aspect ratio        : 2.40:1
    Frame rate mode             : Constant
    Frame rate                  : 23.976 (24000/1001) FPS
    Color space                 : YUV
    Chroma subsampling          : 4:2:0 (Type 2)
    Bit depth                   : 10 bits
    Bits/(Pixel*Frame)          : 0.165
    Stream size                 : 22.2 GiB (95%)
    Title                       : Web 2160p HDR [CinemaniaHDD]
    Default                     : Yes
    Forced                      : No
    Color range                 : Limited
    Color primaries             : BT.2020
    Transfer characteristics    : PQ
    Matrix coefficients         : BT.2020 non-constant
    Mastering display color pri : BT.2020
    Mastering display luminance : min: 0.0050 cd/m2, max: 1000 cd/m2
    Maximum Content Light Level : 1523 cd/m2
    Maximum Frame-Average Light : 445 cd/m2

    Audio #1
    ID                          : 2
    Format                      : AC-3
    Format/Info                 : Audio Coding 3
    Commercial name             : Dolby Digital
    Codec ID                    : A_AC3
    Duration                    : 2 h 10 min
    Bit rate mode               : Constant
    Bit rate                    : 384 kb/s
    Channel(s)                  : 6 channels
    Channel layout              : L R C LFE Ls Rs
    Sampling rate               : 48.0 kHz
    Frame rate                  : 31.250 FPS (1536 SPF)
    Compression mode            : Lossy
    Delay relative to video     : 300 ms
    Stream size                 : 358 MiB (2%)
    Title                       : Español Latino [CinemaniaHDD]
    Language                    : Spanish
    Service kind                : Complete Main
    Default                     : Yes
    Forced                      : Yes

    Audio #2
    ID                          : 3
    Format                      : E-AC-3 JOC
    Format/Info                 : Enhanced AC-3 with Joint Object Coding
    Commercial name             : Dolby Digital Plus with Dolby Atmos
    Codec ID                    : A_EAC3
    Duration                    : 2 h 10 min
    Bit rate mode               : Constant
    Bit rate                    : 768 kb/s
    Channel(s)                  : 6 channels
    Channel layout              : L R C LFE Ls Rs
    Sampling rate               : 48.0 kHz
    Frame rate                  : 31.250 FPS (1536 SPF)
    Compression mode            : Lossy
    Stream size                 : 715 MiB (3%)
    Title                       : Ingles [CinemaniaHDD]
    Language                    : English
    Service kind                : Complete Main
    Default                     : No
    Forced                      : No
    Complexity index            : 16
    Number of dynamic objects   : 15
    Bed channel count           : 1 channel
    Bed channel configuration   : LFE

    Text #1
    ID                          : 4
    Format                      : UTF-8
    Codec ID                    : S_TEXT/UTF8
    Codec ID/Info               : UTF-8 Plain Text
    Duration                    : 1 h 40 min
    Bit rate                    : 1 b/s
    Count of elements           : 29
    Stream size                 : 945 Bytes (0%)
    Title                       : Forzados-SRT [CinemaniaHDD]
    Language                    : Spanish
    Default                     : Yes
    Forced                      : Yes

    Text #2
    ID                          : 5
    Format                      : UTF-8
    Codec ID                    : S_TEXT/UTF8
    Codec ID/Info               : UTF-8 Plain Text
    Duration                    : 2 h 8 min
    Bit rate                    : 53 b/s
    Count of elements           : 1709
    Stream size                 : 50.8 KiB (0%)
    Title                       : Español-SRT [CinemaniaHDD]
    Language                    : Spanish
    Default                     : No
    Forced                      : No

    Text #3
    ID                          : 6
    Format                      : UTF-8
    Codec ID                    : S_TEXT/UTF8
    Codec ID/Info               : UTF-8 Plain Text
    Duration                    : 2 h 9 min
    Bit rate                    : 68 b/s
    Count of elements           : 2318
    Stream size                 : 64.9 KiB (0%)
    Title                       : Ingles-SRT [CinemaniaHDD]
    Language                    : English
    Default                     : No
    Forced                      : No

    Menu
    00:00:00.000                : Chapter 01
    00:09:52.342                : Chapter 02
    00:19:34.299                : Chapter 03
    00:25:44.627                : Chapter 04
    00:33:57.078                : Chapter 05
    00:43:35.031                : Chapter 06
    00:50:56.931                : Chapter 07
    00:57:31.034                : Chapter 08
    01:06:40.333                : Chapter 09
    01:16:39.683                : Chapter 10
    01:19:09.624                : Chapter 11
    01:28:51.122                : Chapter 12
    01:35:33.608                : Chapter 13
    01:43:01.806                : Chapter 14
    01:50:37.262                : Chapter 15
    01:57:19.122                : Chapter 16
    02:08:33.338                : Chapter 17

  • Peso: 23.2 GiB

Sinopsis

Descargar ¡Shazam! La furia de los dioses (2023) WEB-DL 4K UHD HDR/DV Latino. Billy Batson y sus hermanos adoptivos, que se transforman en superhéroes al decir «¡Shazam!», se ven obligados a volver a la acción y luchar contra las Hijas de Atlas, a quienes deben evitar que use un arma que podría destruir el mundo.

Ficha técnica

Video trailer de la película

Enlaces de descarga

Rip de Bluray

Descargar ¡Shazam! La furia de los dioses (2023) WEB-DL 4K UHD HDR/DV Latino




Aportes de DPeliculasHDmega la pass es:dpeliculashdmega.org Aportes de CinemaniaHD la pass es:cinemaniahdd.com Aportes recientes:cinemaniahdd.net
Guardado en : 4K HDR , 4K UHD , Acción , Comedia , Fantasía

Películas relacionadas

  • Matilda (1996) REMUX 4K HDR Latino – CMHDD

    Matilda (1996) REMUX 4K HDR Latino – CMHDD

    1996
    Matilda (1996) REMUX 4K HDR Latino – CMHDD

    1h 38m 1996

    Matilda Wormwood es una jovencita extremadamente curiosa e inteligente, todo lo contrario que sus chabacanos...

    Director: Marge Piane

    Género: Comedia

    Actores: Vinnie Buffolino

  • Pretty Woman (1990) REMUX 1080p Latino – CMHDD

    Pretty Woman (1990) REMUX 1080p Latino – CMHDD

    1990
    Pretty Woman (1990) REMUX 1080p Latino – CMHDD

    1h 59m 1990

    Un acaudalado y frío hombre de negocios conoce en Hollywood Boulevard a una joven y atractiva prostituta...

    Director: Walter von Huene

    Género: Comedia

    Actores: Valorie Armstrong

  • Click (2006) REMUX 1080p Latino – CMHDD

    Click (2006) REMUX 1080p Latino – CMHDD

    2006
    Click (2006) REMUX 1080p Latino – CMHDD

    1h 47m 2006

    Michael Newman (Adam Sandler), un arquitecto muy ocupado que trata de progresar y tener tiempo para su...

    Director: Nancy Karlin

    Género: Comedia

    Actores: Willy Goldstein

descargar ¡Shazam! La furia de los dioses (2023) WEB-DL 4K UHD HDR/DV Latino WEBDL 1080p gratis, ¡Shazam! La furia de los dioses (2023) WEB-DL 4K UHD HDR/DV Latino WEBDL mega 1 link, ¡Shazam! La furia de los dioses (2023) WEB-DL 4K UHD HDR/DV Latino WEBDL pelicula completa, descargar ¡Shazam! La furia de los dioses (2023) WEB-DL 4K UHD HDR/DV Latino WEBDL gratis en mega.

¡Shazam! La furia de los dioses (2023) WEB-DL 4K UHD HDR/DV Latino pelicula full hd, ¡Shazam! La furia de los dioses (2023) WEB-DL 4K UHD HDR/DV Latino mega latino, ¡Shazam! La furia de los dioses (2023) WEB-DL 4K UHD HDR/DV Latino 4k latino, ¡Shazam! La furia de los dioses (2023) WEB-DL 4K UHD HDR/DV Latino pelicula completa, ¡Shazam! La furia de los dioses (2023) WEB-DL 4K UHD HDR/DV Latino descargar gratis, descargar ¡Shazam! La furia de los dioses (2023) WEB-DL 4K UHD HDR/DV Latino pelicula latino, ¡Shazam! La furia de los dioses (2023) WEB-DL 4K UHD HDR/DV Latino 1 link mega, ¡Shazam! La furia de los dioses (2023) WEB-DL 4K UHD HDR/DV Latino 1 link google drive, ¡Shazam! La furia de los dioses (2023) WEB-DL 4K UHD HDR/DV Latino hd 1080p latino.
Comentarios 0