×

¿Problemas para descargar con Mozilla, EDGE? Deshabilita la opción "Abrir vinculos en una pestaña nueva" tal como lo muestra ésta imagen.

¡Shazam! (2019) REMUX 1080p Latino

3.250 vistas

Información de ¡Shazam! (2019) REMUX 1080p Latino

Datos de la película

  • Calidad: Full 1080p
  • Audio: Se especifica abajo de la Sinopsis
  • Subtitulos: Español Latino PGS - Ingles PGS
  • Resolución: 1920x1080p
  • Formato: MKV
  • Codec: H.264
  • Encoder: CinefiloCool
  • Mediainfo: Clic para Mostrar Datos Ver
  • Shazam! (2019) REMUX 1080p Latino-CMHDD.mkv Format                      : Matroska Format version              : Version 4 File size                   : 27.6 GiB Duration                    : 2 h 11 min Overall bit rate mode       : Variable Overall bit rate            : 30.0 Mb/s Movie name                  : Shazam! (2019) Encoded date                : UTC 2023-01-19 02:21:44 Writing application         : mkvmerge v56.1.0 ('My Friend') 64-bit Writing library             : libebml v1.4.2 + libmatroska v1.6.4 Attachments                 : CINEMANIAHD.png Video ID                          : 1 Format                      : AVC Format/Info                 : Advanced Video Codec Format profile              : High@L4.1 Format settings             : CABAC / 4 Ref Frames Format settings, CABAC      : Yes Format settings, Reference  : 4 frames Codec ID                    : V_MPEG4/ISO/AVC Duration                    : 2 h 11 min Bit rate mode               : Variable Bit rate                    : 25.3 Mb/s Maximum bit rate            : 30.0 Mb/s Width                       : 1 920 pixels Height                      : 1 080 pixels Display aspect ratio        : 16:9 Frame rate mode             : Constant Frame rate                  : 23.976 (24000/1001) FPS Color space                 : YUV Chroma subsampling          : 4:2:0 Bit depth                   : 8 bits Scan type                   : Progressive Bits/(Pixel*Frame)          : 0.509 Stream size                 : 23.3 GiB (85%) Title                       : Full HD1080p [REMUX] Default                     : Yes Forced                      : Yes Audio #1 ID                          : 2 Format                      : AC-3 Format/Info                 : Audio Coding 3 Commercial name             : Dolby Digital Codec ID                    : A_AC3 Duration                    : 2 h 11 min Bit rate mode               : Constant Bit rate                    : 448 kb/s Channel(s)                  : 6 channels Channel layout              : L R C LFE Ls Rs Sampling rate               : 48.0 kHz Frame rate                  : 31.250 FPS (1536 SPF) Compression mode            : Lossy Stream size                 : 422 MiB (1%) Title                       : AC3_5.1_Bluray_Esp Language                    : Spanish Service kind                : Complete Main Default                     : Yes Forced                      : Yes Audio #2 ID                          : 3 Format                      : MLP FBA 16-ch Format/Info                 : Meridian Lossless Packing FBA with 16-channel presentation Commercial name             : Dolby TrueHD with Dolby Atmos Codec ID                    : A_TRUEHD Duration                    : 2 h 11 min Bit rate mode               : Variable Bit rate                    : 3 645 kb/s Maximum bit rate            : 5 931 kb/s Channel(s)                  : 8 channels Channel layout              : L R C LFE Ls Rs Lb Rb Sampling rate               : 48.0 kHz Frame rate                  : 1 200.000 FPS (40 SPF) Compression mode            : Lossless Stream size                 : 3.35 GiB (12%) Title                       : THD_7.1_Bluray_Eng Language                    : English Default                     : No Forced                      : No Number of dynamic objects   : 15 Bed channel count           : 1 channel Bed channel configuration   : LFE Audio #3 ID                          : 4 Format                      : AC-3 Format/Info                 : Audio Coding 3 Commercial name             : Dolby Digital Format settings             : Dolby Surround EX Codec ID                    : A_AC3 Duration                    : 2 h 11 min Bit rate mode               : Constant Bit rate                    : 448 kb/s Channel(s)                  : 6 channels Channel layout              : L R C LFE Ls Rs Sampling rate               : 48.0 kHz Frame rate                  : 31.250 FPS (1536 SPF) Compression mode            : Lossy Stream size                 : 422 MiB (1%) Title                       : AC3_5.1_Bluray_Eng Language                    : English Service kind                : Complete Main Default                     : No Forced                      : No Text #1 ID                          : 5 Format                      : PGS Muxing mode                 : zlib Codec ID                    : S_HDMV/PGS Codec ID/Info               : Picture based subtitle format used on BDs/HD-DVDs Duration                    : 2 h 10 min Bit rate                    : 30.6 kb/s Count of elements           : 3500 Stream size                 : 28.6 MiB (0%) Title                       : Sub_Esp [PGS] Language                    : Spanish Default                     : No Forced                      : No Text #2 ID                          : 6 Format                      : PGS Muxing mode                 : zlib Codec ID                    : S_HDMV/PGS Codec ID/Info               : Picture based subtitle format used on BDs/HD-DVDs Duration                    : 2 h 11 min Bit rate                    : 39.8 kb/s Count of elements           : 4310 Stream size                 : 37.4 MiB (0%) Title                       : Sub_Eng [PGS] Language                    : English Default                     : No Forced                      : No Text #3 ID                          : 7 Format                      : UTF-8 Codec ID                    : S_TEXT/UTF8 Codec ID/Info               : UTF-8 Plain Text Duration                    : 1 h 53 min Bit rate                    : 0 b/s Count of elements           : 20 Stream size                 : 504 Bytes (0%) Title                       : Sub_Forzados Language                    : Spanish Default                     : Yes Forced                      : Yes Text #4 ID                          : 8 Format                      : UTF-8 Codec ID                    : S_TEXT/UTF8 Codec ID/Info               : UTF-8 Plain Text Duration                    : 2 h 10 min Bit rate                    : 53 b/s Count of elements           : 1753 Stream size                 : 51.5 KiB (0%) Title                       : Sub_Esp Language                    : Spanish Default                     : No Forced                      : No Menu 00:00:00.000                : Chapter 1 00:08:18.790                : Chapter 2 00:15:11.285                : Chapter 3 00:25:22.396                : Chapter 4 00:31:57.624                : Chapter 5 00:39:00.255                : Chapter 6 00:50:07.713                : Chapter 7 01:01:28.810                : Chapter 8 01:08:51.502                : Chapter 9 01:16:40.471                : Chapter 10 01:24:29.356                : Chapter 11 01:34:00.677                : Chapter 12 01:43:01.175                : Chapter 13 01:52:53.850                : Chapter 14 02:00:44.446                : Chapter 15
  • Peso: 27.6 GiB

Sinopsis

Descargar ¡Shazam! (2019) REMUX 1080p Latino. Todos llevamos un superhéroe dentro, solo se necesita un poco de magia para sacarlo a la luz. Cuando Billy Batson, un niño de acogida de 14 años que ha crecido en las calles, grita la palabra ‘SHAZAM!’ se convierte en el Superhéroe adulto Shazam, por cortesía de un antiguo mago. Dentro de un cuerpo musculoso y divino, Shazam esconde un corazón de niño. Pero lo mejor es que en esta versión de adulto consigue realizar todo lo que le gustaría hacer a cualquier adolescente con superpoderes: ¡divertirse con ellos! ¿Volar? ¿Tener visión de rayos X? ¿Disparar un rayo con las manos? ¿Saltarse el examen de sociales? Shazam va a poner a prueba los límites de sus habilidades con la inconsciencia propia de un niño. Pero necesitará dominar rápidamente esos poderes para luchar contra las letales fuerzas del mal que controla el Dr. Thaddeus Sivana.

Audio Español Latino AC3 5.1 Bluray – Ingles TrueHD 7.1 Bluray
RESUBIDO

Ficha técnica

Video trailer de la película

Enlaces de descarga

Rip de Bluray

Descargar ¡Shazam! (2019) REMUX 1080p Latino




Aportes de DPeliculasHDmega la pass es:dpeliculashdmega.org Aportes de CinemaniaHD la pass es:cinemaniahdd.com
Guardado en : Acción , Comedia , Fantasía , Remux

Películas relacionadas

descargar ¡Shazam! (2019) REMUX 1080p Latino Full 1080p 1080p gratis, ¡Shazam! (2019) REMUX 1080p Latino Full 1080p mega 1 link, ¡Shazam! (2019) REMUX 1080p Latino Full 1080p pelicula completa, descargar ¡Shazam! (2019) REMUX 1080p Latino Full 1080p gratis en mega.

¡Shazam! (2019) REMUX 1080p Latino pelicula full hd, ¡Shazam! (2019) REMUX 1080p Latino mega latino, ¡Shazam! (2019) REMUX 1080p Latino 4k latino, ¡Shazam! (2019) REMUX 1080p Latino pelicula completa, ¡Shazam! (2019) REMUX 1080p Latino descargar gratis, descargar ¡Shazam! (2019) REMUX 1080p Latino pelicula latino, ¡Shazam! (2019) REMUX 1080p Latino 1 link mega, ¡Shazam! (2019) REMUX 1080p Latino 1 link google drive, ¡Shazam! (2019) REMUX 1080p Latino hd 1080p latino.
Comentarios 0