×

¿Problemas para descargar con Mozilla, EDGE? Deshabilita la opción "Abrir vinculos en una pestaña nueva" tal como lo muestra ésta imagen.

¡Shazam! (2019) PLACEBO Full HD 1080p Latino

13.769 vistas

Información de ¡Shazam! (2019) PLACEBO Full HD 1080p Latino

Datos de la película

  • Calidad: Full 1080p
  • Audio: Español Latino AC3 5.1 BLURAY - Ingles DTS 5.1 BLURAY
  • Subtitulos: Español Latino PGS - Ingles PGS
  • Resolución: 1920x1080p
  • Formato: MKV
  • Codec: H.264
  • Encoder: Cinefilocool
  • Mediainfo: Clic para Mostrar Datos Ver
  • Shazam! (2019) 1080p Full HD 1080p Latino-CMHDDv2.mkv Format                      : Matroska Format version              : Version 4 File size                   : 10.9 GiB Duration                    : 2 h 11 min Overall bit rate            : 11.8 Mb/s Movie name                  : CinemaniaHDD.Net Encoded date                : UTC 2019-07-10 03:58:06 Writing application         : mkvmerge v35.0.0 ('All The Love In The World') 64-bit Writing library             : libebml v1.3.9 + libmatroska v1.5.2 Attachments                 : CINEMANIAHD.png Video ID                          : 1 Format                      : AVC Format/Info                 : Advanced Video Codec Format profile              : High@L4.1 Format settings             : CABAC / 4 Ref Frames Format settings, CABAC      : Yes Format settings, ReFrames   : 4 frames Codec ID                    : V_MPEG4/ISO/AVC Duration                    : 2 h 11 min Bit rate                    : 9 833 kb/s Width                       : 1 920 pixels Height                      : 1 080 pixels Display aspect ratio        : 16:9 Frame rate mode             : Constant Frame rate                  : 23.976 (24000/1001) FPS Color space                 : YUV Chroma subsampling          : 4:2:0 Bit depth                   : 8 bits Scan type                   : Progressive Bits/(Pixel*Frame)          : 0.198 Stream size                 : 9.05 GiB (83%) Title                       : Full HD1080p [Bluray] Writing library             : x264 core 157 r2935 545de2f Encoding settings           : cabac=1 / ref=4 / deblock=1:0:0 / analyse=0x3:0x133 / me=tesa / subme=11 / psy=1 / psy_rd=1.00:0.00 / mixed_ref=1 / me_range=24 / chroma_me=1 / trellis=2 / 8x8dct=1 / cqm=0 / deadzone=21,11 / fast_pskip=0 / chroma_qp_offset=-2 / threads=34 / lookahead_threads=8 / sliced_threads=0 / nr=0 / decimate=1 / interlaced=0 / bluray_compat=0 / constrained_intra=0 / bframes=16 / b_pyramid=2 / b_adapt=2 / b_bias=0 / direct=3 / weightb=1 / open_gop=0 / weightp=2 / keyint=240 / keyint_min=24 / scenecut=40 / intra_refresh=0 / rc_lookahead=60 / rc=crf / mbtree=1 / crf=20.0 / qcomp=0.60 / qpmin=0 / qpmax=69 / qpstep=4 / vbv_maxrate=62500 / vbv_bufsize=78125 / crf_max=0.0 / nal_hrd=none / filler=0 / ip_ratio=1.40 / aq=1:1.00 Default                     : Yes Forced                      : No Color range                 : Limited Color primaries             : BT.709 Transfer characteristics    : BT.709 Matrix coefficients         : BT.709 Audio #1 ID                          : 2 Format                      : AC-3 Format/Info                 : Audio Coding 3 Commercial name             : Dolby Digital Codec ID                    : A_AC3 Duration                    : 2 h 11 min Bit rate mode               : Constant Bit rate                    : 448 kb/s Channel(s)                  : 6 channels Channel layout              : L R C LFE Ls Rs Sampling rate               : 48.0 kHz Frame rate                  : 31.250 FPS (1536 SPF) Bit depth                   : 16 bits Compression mode            : Lossy Stream size                 : 422 MiB (4%) Title                       : AC3_5.1_Bluray_Esp Language                    : Spanish Service kind                : Complete Main Default                     : Yes Forced                      : Yes Audio #2 ID                          : 3 Format                      : DTS Format/Info                 : Digital Theater Systems Codec ID                    : A_DTS Duration                    : 2 h 11 min Bit rate mode               : Constant Bit rate                    : 1 509 kb/s Channel(s)                  : 6 channels Channel layout              : C L R Ls Rs LFE Sampling rate               : 48.0 kHz Frame rate                  : 93.750 FPS (512 SPF) Bit depth                   : 24 bits Compression mode            : Lossy Stream size                 : 1.39 GiB (13%) Title                       : DTS_5.1_Bluray_Eng Language                    : English Default                     : No Forced                      : No Text #1 ID                          : 4 Format                      : PGS Muxing mode                 : zlib Codec ID                    : S_HDMV/PGS Codec ID/Info               : Picture based subtitle format used on BDs/HD-DVDs Duration                    : 2 h 10 min Bit rate                    : 30.6 kb/s Count of elements           : 3500 Stream size                 : 28.6 MiB (0%) Title                       : Sub_Esp [PGS] Language                    : Spanish Default                     : No Forced                      : No Text #2 ID                          : 5 Format                      : PGS Muxing mode                 : zlib Codec ID                    : S_HDMV/PGS Codec ID/Info               : Picture based subtitle format used on BDs/HD-DVDs Duration                    : 2 h 11 min Bit rate                    : 39.8 kb/s Count of elements           : 4310 Stream size                 : 37.4 MiB (0%) Title                       : Sub_Eng [PGS] Language                    : English Default                     : No Forced                      : No Text #3 ID                          : 6 Format                      : UTF-8 Codec ID                    : S_TEXT/UTF8 Codec ID/Info               : UTF-8 Plain Text Duration                    : 1 h 53 min Bit rate                    : 0 b/s Count of elements           : 20 Stream size                 : 504 Bytes (0%) Title                       : Sub_Forzados Language                    : Spanish Default                     : Yes Forced                      : Yes Text #4 ID                          : 7 Format                      : UTF-8 Codec ID                    : S_TEXT/UTF8 Codec ID/Info               : UTF-8 Plain Text Duration                    : 2 h 10 min Bit rate                    : 53 b/s Count of elements           : 1753 Stream size                 : 51.5 KiB (0%) Title                       : Sub_Esp Language                    : Spanish Default                     : No Forced                      : No Menu 00:00:00.000                : :Chapter 1 00:08:18.790                : :Chapter 2 00:15:11.285                : :Chapter 3 00:25:22.396                : :Chapter 4 00:31:57.624                : :Chapter 5 00:39:00.255                : :Chapter 6 00:50:07.713                : :Chapter 7 01:01:28.810                : :Chapter 8 01:08:51.502                : :Chapter 9 01:16:40.471                : :Chapter 10 01:24:29.356                : :Chapter 11 01:34:00.677                : :Chapter 12 01:43:01.175                : :Chapter 13 01:52:53.850                : :Chapter 14 02:00:44.529                : :Chapter 15
  • Peso: 10.9 GiB

Sinopsis

Descargar ¡Shazam! (2019) Full HD 1080p Latino, Mega, Google Drive. Todos llevamos un superhéroe dentro, solo se necesita un poco de magia para sacarlo a la luz. Cuando Billy Batson, un niño de acogida de 14 años que ha crecido en las calles, grita la palabra ‘SHAZAM!’ se convierte en el Superhéroe adulto Shazam, por cortesía de un antiguo mago. Dentro de un cuerpo musculoso y divino, Shazam esconde un corazón de niño. Pero lo mejor es que en esta versión de adulto consigue realizar todo lo que le gustaría hacer a cualquier adolescente con superpoderes: ¡divertirse con ellos! ¿Volar? ¿Tener visión de rayos X? ¿Disparar un rayo con las manos? ¿Saltarse el examen de sociales? Shazam va a poner a prueba los límites de sus habilidades con la inconsciencia propia de un niño. Pero necesitará dominar rápidamente esos poderes para luchar contra las letales fuerzas del mal que controla el Dr. Thaddeus Sivana.

RESUBIDO

Ficha técnica

Video trailer de la película

Enlaces de descarga

Rip de Bluray

Descargar ¡Shazam! (2019) PLACEBO Full HD 1080p Latino




Aportes de DPeliculasHDmega la pass es:dpeliculashdmega.org Aportes de CinemaniaHD la pass es:cinemaniahdd.com

Películas relacionadas

  • Transfusion (2023) PLACEBO Full HD 1080p Latino

    Transfusion (2023) PLACEBO Full HD 1080p Latino

    2023
    Transfusion (2023) PLACEBO Full HD 1080p Latino

    1h 45m 2023

    Descargar Transfusion (2023) PLACEBO Full HD 1080p Latino. Un antiguo agente de las Fuerzas Especiales...

    Director: Matt Nable

    Género: Crimen

    Actores: Trystan Go

  • Gladiador (2000) EXTENDED CUT 1080p Latino

    Gladiador (2000) EXTENDED CUT 1080p Latino

    2000
    Gladiador (2000) EXTENDED CUT 1080p Latino

    2h 35m 2000

    Gladiador (2000) EXTENDED CUT 1080p Latino. Máximo, General de las Legiones Romanas, es querido por...

    Director: Ridley Scott

    Género: Acción

    Actores: Tony Curran

  • Gladiador (2000) EXTENDED CUT Full HD 1080p Latino

    Gladiador (2000) EXTENDED CUT Full HD 1080p Latino

    2000
    Gladiador (2000) EXTENDED CUT Full HD 1080p Latino

    2h 35m 2000

    Descargar Gladiador (2000) [Extended Cut] Full HD 1080p Latino. Máximo, General de las Legiones Romanas,...

    Director: Ridley Scott

    Género: Acción

    Actores: Tony Curran

descargar ¡Shazam! (2019) PLACEBO Full HD 1080p Latino Full 1080p 1080p gratis, ¡Shazam! (2019) PLACEBO Full HD 1080p Latino Full 1080p mega 1 link, ¡Shazam! (2019) PLACEBO Full HD 1080p Latino Full 1080p pelicula completa, descargar ¡Shazam! (2019) PLACEBO Full HD 1080p Latino Full 1080p gratis en mega.

¡Shazam! (2019) PLACEBO Full HD 1080p Latino pelicula full hd, ¡Shazam! (2019) PLACEBO Full HD 1080p Latino mega latino, ¡Shazam! (2019) PLACEBO Full HD 1080p Latino 4k latino, ¡Shazam! (2019) PLACEBO Full HD 1080p Latino pelicula completa, ¡Shazam! (2019) PLACEBO Full HD 1080p Latino descargar gratis, descargar ¡Shazam! (2019) PLACEBO Full HD 1080p Latino pelicula latino, ¡Shazam! (2019) PLACEBO Full HD 1080p Latino 1 link mega, ¡Shazam! (2019) PLACEBO Full HD 1080p Latino 1 link google drive, ¡Shazam! (2019) PLACEBO Full HD 1080p Latino hd 1080p latino.
Comentarios 1
  • batou009 - 02 julio, 2019

    gracias compartir