×

¿Problemas para descargar con Mozilla, EDGE? Deshabilita la opción "Abrir vinculos en una pestaña nueva" tal como lo muestra ésta imagen.

¡Shazam! (2019) 1080p Latino

4.289 vistas

Información de ¡Shazam! (2019) 1080p Latino

Datos de la película

  • Calidad: 1080p
  • Audio: Español Latino AC3 5.1 BLURAY - Ingles AC3 5.1 BLURAY
  • Subtitulos: Español Latino SRT - Ingles SRT
  • Resolución: 1920x804p
  • Formato: MKV
  • Codec: H.264
  • Encoder: CinefiloCool
  • Mediainfo: Clic para Mostrar Datos Ver
  • Shazam! (2019) 1080p Latino-CMHDD.mkv Format                      : Matroska Format version              : Version 4 File size                   : 4.14 GiB Duration                    : 2 h 11 min Overall bit rate mode       : Variable Overall bit rate            : 4 495 kb/s Movie name                  : Shazam! (2019) CinemaniaHDD.Net Encoded date                : UTC 2023-01-19 07:23:24 Writing application         : mkvmerge v56.1.0 ('My Friend') 64-bit Writing library             : libebml v1.4.2 + libmatroska v1.6.4 Attachments                 : CINEMANIAHD.png Video ID                          : 1 Format                      : AVC Format/Info                 : Advanced Video Codec Format profile              : High@L4.2 Format settings             : CABAC / 5 Ref Frames Format settings, CABAC      : Yes Format settings, Reference  : 5 frames Codec ID                    : V_MPEG4/ISO/AVC Duration                    : 2 h 11 min Bit rate mode               : Variable Bit rate                    : 3 597 kb/s Width                       : 1 920 pixels Height                      : 804 pixels Display aspect ratio        : 2.40:1 Frame rate mode             : Constant Frame rate                  : 23.976 (24000/1001) FPS Color space                 : YUV Chroma subsampling          : 4:2:0 Bit depth                   : 8 bits Scan type                   : Progressive Bits/(Pixel*Frame)          : 0.097 Stream size                 : 3.31 GiB (80%) Title                       : HD1080p [CinemaniaHDD] Writing library             : x264 core 163 r3059 b684ebe0 Encoding settings           : cabac=1 / ref=5 / deblock=1:-1:-1 / analyse=0x3:0x133 / me=umh / subme=9 / psy=1 / psy_rd=1.00:0.15 / mixed_ref=1 / me_range=16 / chroma_me=1 / trellis=2 / 8x8dct=1 / cqm=0 / deadzone=21,11 / fast_pskip=1 / chroma_qp_offset=-3 / threads=24 / lookahead_threads=2 / sliced_threads=0 / nr=0 / decimate=1 / interlaced=0 / bluray_compat=0 / constrained_intra=0 / bframes=3 / b_pyramid=2 / b_adapt=2 / b_bias=0 / direct=3 / weightb=1 / open_gop=0 / weightp=2 / keyint=240 / keyint_min=24 / scenecut=40 / intra_refresh=0 / rc_lookahead=60 / rc=crf / mbtree=1 / crf=21.5 / qcomp=0.60 / qpmin=0 / qpmax=69 / qpstep=4 / vbv_maxrate=62500 / vbv_bufsize=78125 / crf_max=0.0 / nal_hrd=vbr / filler=0 / ip_ratio=1.40 / aq=1:1.00 Default                     : Yes Forced                      : Yes Color range                 : Limited Color primaries             : BT.709 Transfer characteristics    : BT.709 Matrix coefficients         : BT.709 Audio #1 ID                          : 2 Format                      : AC-3 Format/Info                 : Audio Coding 3 Commercial name             : Dolby Digital Codec ID                    : A_AC3 Duration                    : 2 h 11 min Bit rate mode               : Constant Bit rate                    : 448 kb/s Channel(s)                  : 6 channels Channel layout              : L R C LFE Ls Rs Sampling rate               : 48.0 kHz Frame rate                  : 31.250 FPS (1536 SPF) Compression mode            : Lossy Stream size                 : 422 MiB (10%) Title                       : Español Latino [CinemaniaHDD] Language                    : Spanish Service kind                : Complete Main Default                     : Yes Forced                      : Yes Audio #2 ID                          : 3 Format                      : AC-3 Format/Info                 : Audio Coding 3 Commercial name             : Dolby Digital Format settings             : Dolby Surround EX Codec ID                    : A_AC3 Duration                    : 2 h 11 min Bit rate mode               : Constant Bit rate                    : 448 kb/s Channel(s)                  : 6 channels Channel layout              : L R C LFE Ls Rs Sampling rate               : 48.0 kHz Frame rate                  : 31.250 FPS (1536 SPF) Compression mode            : Lossy Stream size                 : 422 MiB (10%) Title                       : Ingles [CinemaniaHDD] Language                    : English Service kind                : Complete Main Default                     : No Forced                      : No Text #1 ID                          : 4 Format                      : UTF-8 Codec ID                    : S_TEXT/UTF8 Codec ID/Info               : UTF-8 Plain Text Duration                    : 1 h 53 min Bit rate                    : 0 b/s Count of elements           : 20 Stream size                 : 504 Bytes (0%) Title                       : Forzados-SRT [CinemaniaHDD] Language                    : Spanish Default                     : Yes Forced                      : Yes Text #2 ID                          : 5 Format                      : UTF-8 Codec ID                    : S_TEXT/UTF8 Codec ID/Info               : UTF-8 Plain Text Duration                    : 2 h 10 min Bit rate                    : 53 b/s Count of elements           : 1753 Stream size                 : 51.5 KiB (0%) Title                       : Español-SRT [CinemaniaHDD] Language                    : Spanish Default                     : No Forced                      : No Text #3 ID                          : 6 Format                      : UTF-8 Codec ID                    : S_TEXT/UTF8 Codec ID/Info               : UTF-8 Plain Text Duration                    : 2 h 10 min Bit rate                    : 52 b/s Count of elements           : 1728 Stream size                 : 49.9 KiB (0%) Title                       : Ingles-SRT [CinemaniaHDD] Language                    : English Default                     : No Forced                      : No Menu 00:00:00.000                : Chapter 1 00:08:18.790                : Chapter 2 00:15:11.285                : Chapter 3 00:25:22.396                : Chapter 4 00:31:57.624                : Chapter 5 00:39:00.255                : Chapter 6 00:50:07.713                : Chapter 7 01:01:28.810                : Chapter 8 01:08:51.502                : Chapter 9 01:16:40.471                : Chapter 10 01:24:29.356                : Chapter 11 01:34:00.677                : Chapter 12 01:43:01.175                : Chapter 13 01:52:53.850                : Chapter 14 02:00:44.446                : Chapter 15
  • Peso: 4.14 GiB

Sinopsis

Descargar ¡Shazam! (2019) 1080p Latino. Todos llevamos un superhéroe dentro, solo se necesita un poco de magia para sacarlo a la luz. Cuando Billy Batson, un niño de acogida de 14 años que ha crecido en las calles, grita la palabra ‘SHAZAM!’ se convierte en el Superhéroe adulto Shazam, por cortesía de un antiguo mago. Dentro de un cuerpo musculoso y divino, Shazam esconde un corazón de niño. Pero lo mejor es que en esta versión de adulto consigue realizar todo lo que le gustaría hacer a cualquier adolescente con superpoderes: ¡divertirse con ellos! ¿Volar? ¿Tener visión de rayos X? ¿Disparar un rayo con las manos? ¿Saltarse el examen de sociales? Shazam va a poner a prueba los límites de sus habilidades con la inconsciencia propia de un niño. Pero necesitará dominar rápidamente esos poderes para luchar contra las letales fuerzas del mal que controla el Dr. Thaddeus Sivana.

RESUBIDO

Ficha técnica

Video trailer de la película

Enlaces de descarga

Rip de Bluray

Descargar ¡Shazam! (2019) 1080p Latino




Aportes de DPeliculasHDmega la pass es:dpeliculashdmega.org Aportes de CinemaniaHD la pass es:cinemaniahdd.com
Guardado en : Acción , Comedia , Fantasía , HD 1080p

Películas relacionadas

descargar ¡Shazam! (2019) 1080p Latino 1080p 1080p gratis, ¡Shazam! (2019) 1080p Latino 1080p mega 1 link, ¡Shazam! (2019) 1080p Latino 1080p pelicula completa, descargar ¡Shazam! (2019) 1080p Latino 1080p gratis en mega.

¡Shazam! (2019) 1080p Latino pelicula full hd, ¡Shazam! (2019) 1080p Latino mega latino, ¡Shazam! (2019) 1080p Latino 4k latino, ¡Shazam! (2019) 1080p Latino pelicula completa, ¡Shazam! (2019) 1080p Latino descargar gratis, descargar ¡Shazam! (2019) 1080p Latino pelicula latino, ¡Shazam! (2019) 1080p Latino 1 link mega, ¡Shazam! (2019) 1080p Latino 1 link google drive, ¡Shazam! (2019) 1080p Latino hd 1080p latino.
Comentarios 0