×

¿Problemas para descargar con Mozilla, EDGE? Deshabilita la opción "Abrir vinculos en una pestaña nueva" tal como lo muestra ésta imagen.

Shaun of the Dead (2004) 4K UHD HDR Latino

1.238 vistas

Información de Shaun of the Dead (2004) 4K UHD HDR Latino

zombies party una noche de muerte 56693 poster

Datos de la película

  • Calidad: 4K HDR
  • Audio: Español Latino DTS 5.1 BLURAY - Ingles AC3 5.1
  • Subtitulos: Español Latino PGS - Ingles PGS
  • Resolución: 3840x1636p
  • Formato: MKV
  • Codec: HEVC
  • Encoder: CinefiloCool
  • Mediainfo: Clic para Mostrar Datos Ver
  • Shaun of the Dead (2004) UHD HDR Latino-CMHDD.mkv
    Format                      : Matroska
    Format version              : Version 4
    File size                   : 18.3 GiB
    Duration                    : 1 h 39 min
    Overall bit rate            : 26.3 Mb/s
    Movie name                  : CinemaniaHDD.Net
    Encoded date                : UTC 2019-09-09 00:26:26
    Writing application         : mkvmerge v35.0.0 ('All The Love In The World') 64-bit
    Writing library             : libebml v1.3.9 + libmatroska v1.5.2
    Attachments                 : CINEMANIAHD.png

    Video
    ID                          : 1
    Format                      : HEVC
    Format/Info                 : High Efficiency Video Coding
    Commercial name             : HDR10
    Format profile              : Main 10@L5.1@High
    Codec ID                    : V_MPEGH/ISO/HEVC
    Duration                    : 1 h 39 min
    Bit rate                    : 24.9 Mb/s
    Width                       : 3 840 pixels
    Height                      : 1 636 pixels
    Display aspect ratio        : 2.35:1
    Frame rate mode             : Constant
    Frame rate                  : 23.976 (24000/1001) FPS
    Color space                 : YUV
    Chroma subsampling          : 4:2:0 (Type 2)
    Bit depth                   : 10 bits
    Bits/(Pixel*Frame)          : 0.165
    Stream size                 : 17.3 GiB (95%)
    Title                       : 2160p HDR [Bluray]
    Writing library             : x265 3.1+11-de920e0a3183:[Windows][MSVC 1922][64 bit] 10bit
    Encoding settings           : cpuid=1111039 / frame-threads=4 / numa-pools=20 / wpp / no-pmode / no-pme / no-psnr / no-ssim / log-level=2 / input-csp=1 / input-res=3840x1636 / interlace=0 / total-frames=143021 / level-idc=51 / high-tier=1 / uhd-bd=0 / ref=4 / no-allow-non-conformance / repeat-headers / annexb / aud / hrd / info / hash=0 / no-temporal-layers / no-open-gop / min-keyint=1 / keyint=24 / gop-lookahead=0 / bframes=4 / b-adapt=2 / b-pyramid / bframe-bias=0 / rc-lookahead=25 / lookahead-slices=4 / scenecut=40 / radl=0 / no-splice / no-intra-refresh / ctu=64 / min-cu-size=8 / rect / no-amp / max-tu-size=32 / tu-inter-depth=1 / tu-intra-depth=1 / limit-tu=0 / rdoq-level=2 / dynamic-rd=0.00 / no-ssim-rd / signhide / no-tskip / nr-intra=0 / nr-inter=0 / no-constrained-intra / no-strong-intra-smoothing / max-merge=3 / limit-refs=3 / limit-modes / me=3 / subme=3 / merange=57 / temporal-mvp / no-hme / weightp / no-weightb / no-analyze-src-pics / deblock=-3:-3 / no-sao / no-sao-non-deblock / rd=4 / no-early-skip / rskip / no-fast-intra / no-tskip-fast / no-cu-lossless / no-b-intra / no-splitrd-skip / rdpenalty=0 / psy-rd=2.00 / psy-rdoq=1.00 / no-rd-refine / no-lossless / cbqpoffs=0 / crqpoffs=0 / rc=crf / crf=17.0 / qcomp=0.60 / qpstep=4 / stats-write=0 / stats-read=0 / vbv-maxrate=160000 / vbv-bufsize=160000 / vbv-init=0.9 / crf-max=0.0 / crf-min=0.0 / ipratio=1.40 / pbratio=1.30 / aq-mode=2 / aq-strength=1.00 / cutree / zone-count=0 / no-strict-cbr / qg-size=32 / no-rc-grain / qpmax=69 / qpmin=0 / no-const-vbv / sar=1 / overscan=0 / videoformat=5 / range=0 / colorprim=9 / transfer=16 / colormatrix=9 / chromaloc=1 / chromaloc-top=2 / chromaloc-bottom=2 / display-window=0 / master-display=G(13250,34500)B(7500,3000)R(34000,16000)WP(15635,16450)L(10000000,50)cll=944,143 / min-luma=0 / max-luma=1023 / log2-max-poc-lsb=8 / vui-timing-info / vui-hrd-info / slices=1 / no-opt-qp-pps / no-opt-ref-list-length-pps / no-multi-pass-opt-rps / scenecut-bias=0.05 / no-opt-cu-delta-qp / no-aq-motion / hdr / hdr-opt / no-dhdr10-opt / no-idr-recovery-sei / analysis-reuse-level=5 / scale-factor=0 / refine-intra=0 / refine-inter=0 / refine-mv=0 / refine-ctu-distortion=0 / no-limit-sao / ctu-info=0 / no-lowpass-dct / refine-analysis-type=0 / copy-pic=1 / max-ausize-factor=1.0 / no-dynamic-refine / no-single-sei / no-hevc-aq / no-svt / no-field / qp-adaptation-range=1.00
    Default                     : Yes
    Forced                      : No
    Color range                 : Limited
    Color primaries             : BT.2020
    Transfer characteristics    : PQ
    Matrix coefficients         : BT.2020 non-constant
    Mastering display color pri : Display P3
    Mastering display luminance : min: 0.0050 cd/m2, max: 1000 cd/m2
    Maximum Content Light Level : 944 cd/m2
    Maximum Frame-Average Light : 143 cd/m2

    Audio #1
    ID                          : 2
    Format                      : DTS
    Format/Info                 : Digital Theater Systems
    Codec ID                    : A_DTS
    Duration                    : 1 h 39 min
    Bit rate mode               : Constant
    Bit rate                    : 768 kb/s
    Channel(s)                  : 6 channels
    Channel layout              : C L R Ls Rs LFE
    Sampling rate               : 48.0 kHz
    Frame rate                  : 93.750 FPS (512 SPF)
    Bit depth                   : 24 bits
    Compression mode            : Lossy
    Stream size                 : 546 MiB (3%)
    Title                       : DTS_5.1_Bluray_Esp
    Language                    : Spanish
    Default                     : Yes
    Forced                      : No

    Audio #2
    ID                          : 3
    Format                      : AC-3
    Format/Info                 : Audio Coding 3
    Commercial name             : Dolby Digital
    Codec ID                    : A_AC3
    Duration                    : 1 h 39 min
    Bit rate mode               : Constant
    Bit rate                    : 640 kb/s
    Channel(s)                  : 6 channels
    Channel layout              : L R C LFE Ls Rs
    Sampling rate               : 48.0 kHz
    Frame rate                  : 31.250 FPS (1536 SPF)
    Bit depth                   : 16 bits
    Compression mode            : Lossy
    Stream size                 : 455 MiB (2%)
    Title                       : AC3_5.1_Bluray_Eng
    Language                    : English
    Service kind                : Complete Main
    Default                     : No
    Forced                      : No

    Text #1
    ID                          : 4
    Format                      : PGS
    Muxing mode                 : zlib
    Codec ID                    : S_HDMV/PGS
    Codec ID/Info               : Picture based subtitle format used on BDs/HD-DVDs
    Duration                    : 1 h 28 min
    Bit rate                    : 727 b/s
    Count of elements           : 44
    Stream size                 : 471 KiB (0%)
    Title                       : Sub_Forzados [PGS]
    Language                    : Spanish
    Default                     : Yes
    Forced                      : Yes

    Text #2
    ID                          : 5
    Format                      : PGS
    Muxing mode                 : zlib
    Codec ID                    : S_HDMV/PGS
    Codec ID/Info               : Picture based subtitle format used on BDs/HD-DVDs
    Duration                    : 1 h 33 min
    Bit rate                    : 41.4 kb/s
    Count of elements           : 2792
    Stream size                 : 27.6 MiB (0%)
    Title                       : Sub_Esp [PGS]
    Language                    : Spanish
    Default                     : No
    Forced                      : No

    Text #3
    ID                          : 6
    Format                      : PGS
    Muxing mode                 : zlib
    Codec ID                    : S_HDMV/PGS
    Codec ID/Info               : Picture based subtitle format used on BDs/HD-DVDs
    Duration                    : 1 h 34 min
    Bit rate                    : 52.7 kb/s
    Count of elements           : 3466
    Stream size                 : 35.6 MiB (0%)
    Title                       : Sub_Eng [PGS]
    Language                    : English
    Default                     : No
    Forced                      : No

    Text #4
    ID                          : 7
    Format                      : UTF-8
    Codec ID                    : S_TEXT/UTF8
    Codec ID/Info               : UTF-8 Plain Text
    Duration                    : 1 h 28 min
    Bit rate                    : 0 b/s
    Count of elements           : 22
    Stream size                 : 601 Bytes (0%)
    Title                       : Sub_Forzados
    Language                    : Spanish
    Default                     : No
    Forced                      : No

    Text #5
    ID                          : 8
    Format                      : UTF-8
    Codec ID                    : S_TEXT/UTF8
    Codec ID/Info               : UTF-8 Plain Text
    Duration                    : 1 h 33 min
    Bit rate                    : 62 b/s
    Count of elements           : 1254
    Stream size                 : 42.8 KiB (0%)
    Title                       : Sub_Esp
    Language                    : Spanish
    Default                     : No
    Forced                      : No

    Menu
    00:00:00.000                : en:Chapter 01
    00:03:35.048                : en:Chapter 02
    00:05:02.886                : en:Chapter 03
    00:07:26.571                : en:Chapter 04
    00:08:52.490                : en:Chapter 05
    00:12:14.943                : en:Chapter 06
    00:13:50.538                : en:Chapter 07
    00:15:58.958                : en:Chapter 08
    00:18:26.856                : en:Chapter 09
    00:21:48.516                : en:Chapter 10
    00:25:34.992                : en:Chapter 11
    00:28:43.388                : en:Chapter 12
    00:30:53.268                : en:Chapter 13
    00:33:05.775                : en:Chapter 14
    00:35:23.872                : en:Chapter 15
    00:36:59.592                : en:Chapter 16
    00:39:33.705                : en:Chapter 17
    00:40:34.932                : en:Chapter 18
    00:42:11.070                : en:Chapter 19
    00:46:04.553                : en:Chapter 20
    00:47:41.192                : en:Chapter 21
    00:48:35.996                : en:Chapter 22
    00:51:32.965                : en:Chapter 23
    00:55:00.672                : en:Chapter 24
    00:56:49.239                : en:Chapter 25
    00:58:04.564                : en:Chapter 26
    01:00:09.147                : en:Chapter 27
    01:04:20.398                : en:Chapter 28
    01:07:50.483                : en:Chapter 29
    01:10:42.947                : en:Chapter 30
    01:13:57.350                : en:Chapter 31
    01:16:39.428                : en:Chapter 32
    01:21:23.295                : en:Chapter 33
    01:25:24.828                : en:Chapter 34
    01:29:58.393                : en:Chapter 35
    01:31:36.491                : en:Chapter 36
    01:33:47.664                : en:Chapter 37

  • Peso: 18.3 GiB

Sinopsis

Descargar Shaun of the Dead (2004) 4K UHD HDR Latino. La vida de Shaun es un callejón sin salida. Se pasa la vida en la taberna local con su amigo íntimo Ed, discute con su madre y descuida a su novia, Liz. Cuando Liz le deja plantado. Shaun decide, finalmente, poner su vida en orden. Tiene que reconquistar el corazón de su novia, enmendar sus relaciones con su madre y enfrentarse a las responsabilidades de un adulto.

Ficha técnica

Video trailer de la película

Enlaces de descarga

Rip de Bluray

Descargar Shaun of the Dead (2004) 4K UHD HDR Latino




Aportes de DPeliculasHDmega la pass es:dpeliculashdmega.org Aportes de CinemaniaHD la pass es:cinemaniahdd.com
Guardado en : 4K HDR , 4K UHD , Comedia , Terror

Películas relacionadas

descargar Shaun of the Dead (2004) 4K UHD HDR Latino 4K HDR 1080p gratis, Shaun of the Dead (2004) 4K UHD HDR Latino 4K HDR mega 1 link, Shaun of the Dead (2004) 4K UHD HDR Latino 4K HDR pelicula completa, descargar Shaun of the Dead (2004) 4K UHD HDR Latino 4K HDR gratis en mega.

Shaun of the Dead (2004) 4K UHD HDR Latino pelicula full hd, Shaun of the Dead (2004) 4K UHD HDR Latino mega latino, Shaun of the Dead (2004) 4K UHD HDR Latino 4k latino, Shaun of the Dead (2004) 4K UHD HDR Latino pelicula completa, Shaun of the Dead (2004) 4K UHD HDR Latino descargar gratis, descargar Shaun of the Dead (2004) 4K UHD HDR Latino pelicula latino, Shaun of the Dead (2004) 4K UHD HDR Latino 1 link mega, Shaun of the Dead (2004) 4K UHD HDR Latino 1 link google drive, Shaun of the Dead (2004) 4K UHD HDR Latino hd 1080p latino.
Comentarios 0